Боевой гимн / Battle Hymn (Дуглас Серк / Douglas Sirk) [1957, США, военный, драма, биография, экранизация, DVDRip] VO (Доцент)

Reply to topic
DL-List and Torrent activity
Size:  1.37 GB   |    Registered:  4 years   |    Completed:  0 times

Seeder not seen: 2 years 6 months

 
   
 
 
Author Message

star21 ®

Gender: Female

Longevity: 4 years 1 month

Posts: 551946

Location: Екатеринбург

Post 30-Nov-2015 05:49

[Quote]

Боевой гимн / Battle Hymn Страна: CША
Жанр: военный, драма, биография, экранизация
Год выпуска: 1957
Продолжительность: 01:43:57
Перевод: Одноголосый закадровый Доцент (Владимир Воронцов)
Cубтитры: нет
Оригинальная аудиодорожка: нет
Режиссер: Дуглас Серк / Douglas Sirk
В ролях: Рок Хадсон, Анна Кашфи, Дэн Дюрьи, Дон ДеФор, Марта Хайер, Джок Махони, Алан Хейл мл., Джеймс Эдвардс, Карл Бентон Рейд, Ричард Лу, Филип Ан, Тэру Симада, Карлтон Янг, Роберт Брубэйкер, Джеймс Хонг, Кеннет МакДональд, Стив Пендлтон, Эмзи Стриклэнд, Джон Труакс
Описание: Основан на реальных фактах из одноименной автобиографической книги полковника ВВС США Дина Хесса. Во время Корейской войны, в 1950 году его назначили командиром группы "Boat one" (в группе учили южных корейцев летать на истребителях F-51 Mustang). В Корее Хесс совершил 250 боевых вылетов и помог спасти 950 корейских сирот. Вместе с преподобным Д. Блейзделлом и штаб-сержантом М. Стрэнгом организовал авиамост (Kiddy Car Airlift) для вывоза сирот перед началом китайского наступления.
Доп. информация: Собственный рип.
Сэмпл: http://multi-up.com/1061938
Качество видео: DVDRip
Спасибо alinto за
Формат видео: AVI
Видео: XviD, 704x304 (2.35:1), 25.000 fps, 1688 kbps avg
Аудио: Russian AC3 Dolby Digital, 48 kHz, 2/0 (L,R) ch, 192.00 kbps avg

MediaInfo

General
Complete name : F:\Battle Hymn_1957\Battle Hymn.1957.DVDRip.VO.avi
Format : AVI
Format/Info : Audio Video Interleave
File size : 1.37 GiB
Duration : 1h 43mn
Overall bit rate : 1 891 Kbps
Writing application : VirtualDubMod 1.5.10.3 | www.virtualdub-fr.org || (build 2550/release)
Writing library : VirtualDubMod build 2550/release
Video
ID : 0
Format : MPEG-4 Visual
Format profile : Advanced Simple@L5
Format settings, BVOP : 1
Format settings, QPel : No
Format settings, GMC : No warppoints
Format settings, Matrix : Default (MPEG)
Codec ID : XVID
Codec ID/Hint : XviD
Duration : 1h 43mn
Bit rate : 1 689 Kbps
Width : 704 pixels
Height : 304 pixels
Display aspect ratio : 2.35:1
Frame rate : 25.000 fps
Color space : YUV
Chroma subsampling : 4:2:0
Bit depth : 8 bits
Scan type : Progressive
Compression mode : Lossy
Bits/(Pixel*Frame) : 0.316
Stream size : 1.23 GiB (89%)
Writing library : XviD 73
Audio
ID : 1
Format : AC-3
Format/Info : Audio Coding 3
Mode extension : CM (complete main)
Format settings, Endianness : Big
Codec ID : 2000
Duration : 1h 43mn
Bit rate mode : Constant
Bit rate : 192 Kbps
Channel(s) : 2 channels
Channel positions : Front: L R
Sampling rate : 48.0 KHz
Bit depth : 16 bits
Compression mode : Lossy
Stream size : 143 MiB (10%)
Alignment : Split accross interleaves
Interleave, duration : 40 ms (1.00 video frame)
Interleave, preload duration : 500 ms

Скриншоты

To download the content you need:
1. Download and install torrent client [for Windows] or for mobile system
2. Click on [Download]
Attention.
If the test YOU are NOT a ROBOT - does not work, then You are using an outdated browser.
Install the current browser and click on [Download]
Security: torrent client is allowed by Kaspersky.

[en.asmlocator.ru].t3991.torrent 
Torrent: Registered [ 2015-11-30 05:45 ] · 27C8235FE47DF64B8807B6C419DAD5C44C48574F

Download .torrent

Download

14 KB

Status: checked
Completed: 0 times
Size: 1.37 GB
terms.php
[Profile] [PM]
Display posts:    
Reply to topic

Current time is: 08-Dec 10:34

All times are UTC ± 0



You cannot post new topics in this forum
You cannot reply to topics in this forum
You cannot edit your posts in this forum
You cannot delete your posts in this forum
You cannot vote in polls in this forum
You cannot attach files in this forum
You can download files in this forum
Верим фактам, а не вранью Путина! Факт, что Правительство ведёт Россию к истреблению.
Так как численность населения падает, даже не смотря на приток эмигрантов!
Русская нация вымирает и вырождается, смешиваясь с эмигрантами!
Факт, что военных и граждан предприятий заставляют голосовать за партию Единая Россия и Путина
ПОД СТРАХОМ УВОЛЬНЕНИЯ!
Нам не нужно Правительство, блокирующее личную жизнь, интернет, нарушающее сохранность данных.
Все эти действия финансируются за счёт народа!