Военные барабаны / War Drums (Реджинальд Ле Борг / Reginald Le Borg) [1957, США, вестерн, TVRip] VO

Reply to topic
DL-List and Torrent activity
Size:  1.14 GB   |    Registered:  4 years   |    Completed:  0 times

Seeder not seen: 1 month 19 days

 
   
 
 
Author Message

star21 ®

Gender: Female

Longevity: 4 years 1 month

Posts: 551946

Location: Екатеринбург

Post 30-Nov-2015 05:49

[Quote]

Военные барабаны / War Drums
Страна: США
Жанр: вестерн
Год выпуска: 1957
Продолжительность: 01:12:33
Перевод: Одноголосый закадровый (chayka2)
Cубтитры: нет
Оригинальная аудиодорожка: нет
Режиссер: Реджинальд Ле Борг / Reginald Le Borg
В ролях: Лекс Баркер , Джоан Тейлор , Бен Джонсон, Жанна Кармен, Стюарт Уитмен, Лари Ченч, Джеймс Парнелл
Описание: Действие фильма происходит в Аризоне в начале 1860 года.
Преследуя мексиканских конокрадов, вождь апачей Мангас
Колорадос захватывает в плен мексиканскую девушку по
имени Рива. На обратном пути он встречается с белыми
торговцами, и один из них, Люк Фарго, влюбившись в девушку,
пытается выкупить её у индейцев. Но никакие подарки не могут
повлиять на решение Мангаса оставить её себе. Он привозит
её в свою деревню и представляет как свою будущую жену.
Разгорается конфликт и Мангасу приходится отстаивать своё
право на любовь в поединке. Рива, оценив его самопожертво-
вание, соглашается стать его женой. Но она не хочет быть
простой скво, она становится женой-воином и сопровождает
своего мужа в боевых походах. Из-за неосторожных действий
старателей на землях апачей, разгорается военный конфликт.
Мангас получает тяжелое ранение, но отважная женщина спасает
ему жизнь. Отличный вестерн полный драматизма и любви с
прекрасными актерами, будет держать ваше внимание до самого
конца. А когда он заканчивается, хочется чтобы он продолжался и
продолжался… Фильм снят почти полностью под открытым небом в
живописном месте. (Chayka2)
Доп. информация: Перевод к фильму сделан американцем
с индейскими корнями (Пол Спенглер). Я сделала адаптацию перевода и
озвучила. Улучшено качество звуковой дорожки. Рип взят в сети с зарубежных сайтов.
Сэмпл: http://multi-up.com/1061969
Качество видео: TVRip
Формат видео: AVI
Видео: DivX 5 720x546 25fps 2045 Kbps
Аудио: MP3 48000Hz stereo 192kbps

MediaInfo

General
Complete name : H:\Военные барабаны\Voennye_barabany_1957.TVRIP.avi
Format : AVI
Format/Info : Audio Video Interleave
File size : 1.14 GiB
Duration : 1h 12mn
Overall bit rate : 2 247 Kbps
Movie name : Rebell der roten Berge.Title1.DVDRip
Writing application : VirtualDubMod 1.5.10.3 (build 2550/release)
Writing library : VirtualDubMod build 2550/release
Original source form/Name : Rebell der roten Berge
Video #0
ID : 0
Format : MPEG-4 Visual
Format profile : Simple@L3
Format settings, BVOP : No
Format settings, QPel : No
Format settings, GMC : No warppoints
Format settings, Matrix : Default (H.263)
Codec ID : DX50
Codec ID/Hint : DivX 5
Duration : 1h 12mn
Bit rate : 2 045 Kbps
Width : 720 pixels
Height : 546 pixels
Display aspect ratio : 4:3
Frame rate : 25.000 fps
Color space : YUV
Chroma subsampling : 4:2:0
Bit depth : 8 bits
Scan type : Progressive
Bits/(Pixel*Frame) : 0.208
Stream size : 1.04 GiB (91%)
Writing library : XviD 1.1.2 (UTC 2006-11-01)
Audio #1
ID : 1
Format : MPEG Audio
Format version : Version 1
Format profile : Layer 3
Mode : Joint stereo
Codec ID : 55
Codec ID/Hint : MP3
Duration : 1h 12mn
Bit rate mode : Constant
Bit rate : 192 Kbps
Channel(s) : 2 channels
Sampling rate : 48.0 KHz
Stream size : 99.6 MiB (9%)
Alignment : Aligned on interleaves
Interleave, duration : 40 ms (1.00 video frame)
Interleave, preload duration : 504 ms

Скриншот c названием фильма

Скриншоты



To download the content you need:
1. Download and install torrent client [for Windows] or for mobile system
2. Click on [Download]
Attention.
If the test YOU are NOT a ROBOT - does not work, then You are using an outdated browser.
Install the current browser and click on [Download]
Security: torrent client is allowed by Kaspersky.

[en.asmlocator.ru].t3988.torrent 
Torrent: Registered [ 2015-11-30 05:45 ] · 6D1E568E879994C047B72DB297EA51DB6D9371BA

Download .torrent

Download

12 KB

Status: checked
Completed: 0 times
Size: 1.14 GB
terms.php
[Profile] [PM]
Display posts:    
Reply to topic

Current time is: 08-Dec 11:30

All times are UTC ± 0



You cannot post new topics in this forum
You cannot reply to topics in this forum
You cannot edit your posts in this forum
You cannot delete your posts in this forum
You cannot vote in polls in this forum
You cannot attach files in this forum
You can download files in this forum
Верим фактам, а не вранью Путина! Факт, что Правительство ведёт Россию к истреблению.
Так как численность населения падает, даже не смотря на приток эмигрантов!
Русская нация вымирает и вырождается, смешиваясь с эмигрантами!
Факт, что военных и граждан предприятий заставляют голосовать за партию Единая Россия и Путина
ПОД СТРАХОМ УВОЛЬНЕНИЯ!
Нам не нужно Правительство, блокирующее личную жизнь, интернет, нарушающее сохранность данных.
Все эти действия финансируются за счёт народа!