Доктор Голдфут и бикини-машина / Dr. Goldfoot and the Bikini Machine (Норман Торог / Norman Taurog) [1965, США, Комедия, HDTVRip] DVO

Reply to topic
DL-List and Torrent activity
Size:  1.44 GB   |    Registered:  4 years   |    Completed:  0 times

Seeder not seen: Never

 
   
 
 
Author Message

star21 ®

Gender: Female

Longevity: 4 years 1 month

Posts: 551946

Location: Екатеринбург

Post 30-Nov-2015 05:49

[Quote]

Доктор Голдфут и бикини-машина / Dr. Goldfoot and the Bikini Machine
Страна: США
Жанр: Комедия
Год выпуска: 1965
Продолжительность: 01:23:56
Перевод: Профессиональный (двухголосый закадровый)
Cубтитры: нет
Режиссер: Норман Торог / Norman Taurog
В ролях: Винсент Прайс, Фрэнки Авалон, Дуэйн Хикман, Сьюзэн Харт, Джек Муллани, Фред Кларк, Патти Чандлер, Мэри Хьюз, Салли Сачсе, Лури Холмс
Описание: Злой доктор Голдфут хочет захватить власть над миром с помошью красивых женщин-роботов, которые соблазняют самых богатых и могущественных мужчин. Один из таких роботов засылается к миллионеру Тодду Армстронгу, а секретный агент Гэмбл пытается его остановить.
Доп. информация: За предоставленный рип благодарим Ledy_X
"Спасибы" просьба ПИСАТЬ в теме, тем самым вы продлеваете жизнь раздаче.
Релиз
Качество видео: HDTVRip [Исходник 1080i]
Формат видео: AVI
Видео: 720x400 (1.80:1), 25 fps, XviD build 50 ~2249 kbps avg, 0.31 bit/pixel
Аудио: 48 kHz, AC3 Dolby Digital, 2/0 (L,R) ch, ~192 kbps

MediaInfo

Доктор Голдфут и бикини-машина - Dr. Goldfoot and the Bikini Machine [Rip by Ledy_X].avi
Format : AVI
Format/Info : Audio Video Interleave
File size : 1.44 GiB
Duration : 1h 23mn
Overall bit rate : 2 452 Kbps
Movie name : Доктор Голдфут и бикини-машина - Dr. Goldfoot and the Bikini Machine [Rip by Ledy_X]
Director : Rip by Ledy_X
Writing application : VirtualDubMod 1.5.10.3 | www.virtualdub-fr.org || (build 2550/release)
Copyright : Edich2
Comment : RuTracker.org
Video
ID : 0
Format : MPEG-4 Visual
Format profile : Advanced Simple@L5
Format settings, BVOP : 2
Format settings, QPel : No
Format settings, GMC : No warppoints
Format settings, Matrix : Custom
Codec ID : XVID
Codec ID/Hint : XviD
Duration : 1h 23mn
Bit rate : 2 250 Kbps
Width : 720 pixels
Height : 400 pixels
Display aspect ratio : 16:9
Frame rate : 25.000 fps
Color space : YUV
Chroma subsampling : 4:2:0
Bit depth : 8 bits
Scan type : Progressive
Compression mode : Lossy
Bits/(Pixel*Frame) : 0.312
Stream size : 1.32 GiB (92%)
Writing library : XviD 1.2.1 (UTC 2008-12-04)
Audio
ID : 1
Format : AC-3
Format/Info : Audio Coding 3
Mode extension : CM (complete main)
Format settings, Endianness : Big
Codec ID : 2000
Duration : 1h 23mn
Bit rate mode : Constant
Bit rate : 192 Kbps
Channel(s) : 2 channels
Channel positions : Front: L R
Sampling rate : 48.0 KHz
Bit depth : 16 bits
Compression mode : Lossy
Stream size : 115 MiB (8%)
Alignment : Split accross interleaves
Interleave, duration : 40 ms (1.00 video frame)
Interleave, preload duration : 500 ms

Скриншоты


To download the content you need:
1. Download and install torrent client [for Windows] or for mobile system
2. Click on [Download]
Attention.
If the test YOU are NOT a ROBOT - does not work, then You are using an outdated browser.
Install the current browser and click on [Download]
Security: torrent client is allowed by Kaspersky.

[en.asmlocator.ru].t3986.torrent 
Torrent: Registered [ 2015-11-30 05:45 ] · 04F19DB0366299D11EEAEBE77A11CAC5A66900FA

Download .torrent

Download

15 KB

Status: checked
Completed: 0 times
Size: 1.44 GB
terms.php
[Profile] [PM]
Display posts:    
Reply to topic

Current time is: 12-Dec 18:45

All times are UTC ± 0



You cannot post new topics in this forum
You cannot reply to topics in this forum
You cannot edit your posts in this forum
You cannot delete your posts in this forum
You cannot vote in polls in this forum
You cannot attach files in this forum
You can download files in this forum
Верим фактам, а не вранью Путина! Факт, что Правительство ведёт Россию к истреблению.
Так как численность населения падает, даже не смотря на приток эмигрантов!
Русская нация вымирает и вырождается, смешиваясь с эмигрантами!
Факт, что военных и граждан предприятий заставляют голосовать за партию Единая Россия и Путина
ПОД СТРАХОМ УВОЛЬНЕНИЯ!
Нам не нужно Правительство, блокирующее личную жизнь, интернет, нарушающее сохранность данных.
Все эти действия финансируются за счёт народа!