Ханс Бринкер / Hans Brinker (Роберт Ширер / Robert Scheerer) [1969, Нидерланды, ФРГ, США, Мелодрама, семейный, музыкальный, TVRip] MVO Парк развлечений

Reply to topic
DL-List and Torrent activity
Size:  1.46 GB   |    Registered:  4 years   |    Completed:  0 times

Seeder not seen: 3 years 8 months

 
   
 
 
Author Message

star21 ®

Gender: Female

Longevity: 4 years 1 month

Posts: 551946

Location: Екатеринбург

Post 30-Nov-2015 05:49

[Quote]

Ханс Бринкер / Hans Brinker Год выпуска: 1969.
Страна: Нидерланды Нидерланды , ФРГ , США .
Жанр: Мелодрама, семейный, музыкальный.
Продолжительность: 01:42:20.
Перевод: Профессиональный (многоголосый закадровый) Парк развлечений.
Субтитры: нет.
Оригинальная аудио дорожка: нет.
Режиссер: Роберт Ширер /Robert Scheerer/.
В ролях:
Элеонор Паркер, Ричард Бейсхарт, Джон Грегсон, Сирил Ритчард, Лайэм Редмонд, Робин Эсквит, Роберта Тоуви, Шейла Уитмилл, Джейн Энтони.
Описание:
Вдохновляющая история о юношеской чести. Экранизация романа американской писательницы Мэри Мэйпс Додж, впервые опубликованного в 1865 году. Действие романа происходит в Нидерландах, представляя собой яркий портрет голландской жизни в начале XIX века.
Доп. информация:
Киностудии: National Broadcasting Company (NBC).
Авторы сценария: Билл Манхофф, Мери Мейп Додж.
Оператор: Гюнтер Хаазе.
Композитор: Мус Чарлап.
Художники: Матиас Маттис, Ирмс Паули, Эллен Шмидт.
Премьера: 14 декабря 1969 года.
[imdb]http://www.imdb.com/title/tt0079269[/imdb]

Качество: TVRip
Формат: AVI
Видео: 704x528 (1.33:1), 25 fps, XviD build 50 ~1833 kbps avg, 0.20 bit/pixel
Аудио: 48 kHz, AC3 Dolby Digital, 2/0 (L,R) ch, ~192 kbps

Отчет Media Info

Общее
Полное имя : Hans.Brinker.1965.XviD.TVRip.avi
Format : AVI
Format/Info : Audio Video Interleave
File size : 1.46 GiB
Duration : 1h 42mn
Overall bit rate : 2 036 Kbps
Movie name : Ханс Бринкер / Hans Brinker (1969)
Copyright : HeDgEhOt®
Video
ID : 0
Format : MPEG-4 Visual
Format profile : Advanced Simple@L5
Format settings, BVOP : 1
Format settings, QPel : No
Format settings, GMC : No warppoints
Format settings, Matrix : Default (MPEG)
Codec ID : XVID
Codec ID/Hint : XviD
Duration : 1h 42mn
Bit rate : 1 834 Kbps
Width : 704 pixels
Height : 528 pixels
Display aspect ratio : 4:3
Frame rate : 25.000 fps
Color space : YUV
Chroma subsampling : 4:2:0
Bit depth : 8 bits
Scan type : Progressive
Compression mode : Lossy
Bits/(Pixel*Frame) : 0.197
Stream size : 1.31 GiB (90%)
Writing library : XviD 1.2.1 (UTC 2008-12-04)
Audio
ID : 1
Format : AC-3
Format/Info : Audio Coding 3
Mode extension : CM (complete main)
Format settings, Endianness : Big
Codec ID : 2000
Duration : 1h 42mn
Bit rate mode : Constant
Bit rate : 192 Kbps
Channel(s) : 2 channels
Channel positions : Front: L R
Sampling rate : 48.0 KHz
Compression mode : Lossy
Stream size : 141 MiB (9%)
Alignment : Aligned on interleaves
Interleave, duration : 40 ms (1.00 video frame)
Interleave, preload duratio : 512 ms
Language : Russian

Скриншоты


Альтернативный хост


To download the content you need:
1. Download and install torrent client [for Windows] or for mobile system
2. Click on [Download]
Attention.
If the test YOU are NOT a ROBOT - does not work, then You are using an outdated browser.
Install the current browser and click on [Download]
Security: torrent client is allowed by Kaspersky.

[en.asmlocator.ru].t3984.torrent 
Torrent: Registered [ 2015-11-30 05:45 ] · 8EFE7321F9E28320784D736F4303BAA0FD48CA90

Download .torrent

Download

15 KB

Status: checked
Completed: 0 times
Size: 1.46 GB
terms.php
[Profile] [PM]
Display posts:    
Reply to topic

Current time is: 09-Dec 05:50

All times are UTC ± 0



You cannot post new topics in this forum
You cannot reply to topics in this forum
You cannot edit your posts in this forum
You cannot delete your posts in this forum
You cannot vote in polls in this forum
You cannot attach files in this forum
You can download files in this forum
Верим фактам, а не вранью Путина! Факт, что Правительство ведёт Россию к истреблению.
Так как численность населения падает, даже не смотря на приток эмигрантов!
Русская нация вымирает и вырождается, смешиваясь с эмигрантами!
Факт, что военных и граждан предприятий заставляют голосовать за партию Единая Россия и Путина
ПОД СТРАХОМ УВОЛЬНЕНИЯ!
Нам не нужно Правительство, блокирующее личную жизнь, интернет, нарушающее сохранность данных.
Все эти действия финансируются за счёт народа!