Превосходное преступление / Indagine su un delitto perfetto (Джузеппе Розати / Giuseppe Rosati) [1978, Италия, детектив, DVDRip] Sub Rus (Антон Каптелов) + Original Ita

Reply to topic
DL-List and Torrent activity
Size:  1.36 GB   |    Registered:  4 years   |    Completed:  0 times

Seeder not seen: 1 year 9 months

 
   
 
 
Author Message

star21 ®

Gender: Female

Longevity: 4 years 1 month

Posts: 551946

Location: Екатеринбург

Post 30-Nov-2015 05:49

[Quote]

Превосходное преступление / Следствие по делу об идеальном преступлении / Indagine su un delitto perfetto Страна: Италия
Жанр: детектив
Год выпуска: 1978
Продолжительность: 01:29:25
Перевод: Субтитры Антон Каптелов
Cубтитры: русские
Оригинальная аудиодорожка: итальянский
Режиссер: Джузеппе Розати / Giuseppe Rosati
В ролях: Глория Гвида, Адольфо Чели, Джанет Агрен, Энтони Стил, Алида Валли, Джозеф Коттен, Франко Рессель, Леонард Манн, Пауль Мюллер, Марио Новелли
Описание: Глава крупной корпорации погибает в авиакатастрофе. В связи с тем, что он не оставил завещания, совет директоров компании должен избрать его преемника, но кандидаты на высокую должность начинают гибнуть один за другим.
Сэмпл: http://multi-up.com/1062049
Качество видео: DVDRip
Формат видео: AVI
Видео: 688x288 (2.39:1), 25 fps, XviD build 47 ~1974 kbps avg, 0.40 bit/pixel
Аудио: 48 kHz, AC3 Dolby Digital, 2/0 (L,R) ch, ~192 kbps
Формат субтитров: softsub (SRT)

MediaInfo

Format : AVI
Format/Info : Audio Video Interleave
File size : 1.36 GiB
Duration : 1h 29mn
Overall bit rate : 2 176 Kbps
Writing application : VirtualDubMod 1.5.10.2 (build 2540/release)
Writing library : VirtualDubMod build 2540/release
Video
ID : 0
Format : MPEG-4 Visual
Format profile : Advanced Simple@L5
Format settings, BVOP : 1
Format settings, QPel : No
Format settings, GMC : No warppoints
Format settings, Matrix : Default (MPEG)
Codec ID : XVID
Codec ID/Hint : XviD
Duration : 1h 29mn
Bit rate : 1 974 Kbps
Width : 688 pixels
Height : 288 pixels
Display aspect ratio : 2.40:1
Frame rate : 25.000 fps
Color space : YUV
Chroma subsampling : 4:2:0
Bit depth : 8 bits
Scan type : Progressive
Compression mode : Lossy
Bits/(Pixel*Frame) : 0.399
Stream size : 1.23 GiB (91%)
Writing library : XviD 1.2.0.dev47 (UTC 2006-11-01)
Audio
ID : 1
Format : AC-3
Format/Info : Audio Coding 3
Mode extension : CM (complete main)
Format settings, Endianness : Big
Codec ID : 2000
Duration : 1h 29mn
Bit rate mode : Constant
Bit rate : 192 Kbps
Channel(s) : 2 channels
Channel positions : Front: L R
Sampling rate : 48.0 KHz
Bit depth : 16 bits
Compression mode : Lossy
Stream size : 123 MiB (9%)
Alignment : Split accross interleaves
Interleave, duration : 40 ms (1.00 video frame)
Interleave, preload duration : 500 ms

Скриншот c названием фильма

Пример субтитров

15
00:03:21,445 --> 00:03:24,359
Однажды, когда море станет
соленой пустыней...
16
00:03:24,562 --> 00:03:28,403
...как и океан, каждый из нас
предстанет пред Великим Судьей...
17
00:03:28,616 --> 00:03:31,523
...и в день тот, совершивших деяния
против Бога и созданий его...
18
00:03:31,663 --> 00:03:33,819
...постигнет судьба Иуды и Каина.
19
00:03:33,991 --> 00:03:36,780
Прими же, Господи, душу
любящего сына своего...
20
00:03:37,084 --> 00:03:40,452
Сэр Рональд Сельмер, герцог Эссекский...
21
00:03:41,386 --> 00:03:44,117
...будет направлять нашу компанию...
22
00:03:45,503 --> 00:03:47,077
Я больше не могу!
23
00:03:50,860 --> 00:03:55,148
Никто лучше вас, господа,
его ближайших коллег...
24
00:03:55,298 --> 00:03:57,740
...не может осознать всех последствий
этой утраты!
25
00:03:57,920 --> 00:04:01,839
И... это требует немедленного избрания
его преемника.
26
00:04:02,380 --> 00:04:05,132
Сегодня наша компания
сильна, как никогда прежде.
27
00:04:05,420 --> 00:04:07,819
Мы контролируем практически все -
косвенно или напрямую.
28
00:04:07,956 --> 00:04:10,579
В нашем владении источники энергии,
целая сеть дочерних компаний.
29
00:04:10,900 --> 00:04:14,939
Мы владеем нефтью и ураном, а через них
управляем и международной политикой.
30
00:04:15,135 --> 00:04:17,887
Поскольку сэр Рональд Сельмер
не оставил никаких указаний о приемнике...
31
00:04:17,955 --> 00:04:19,986
...что объясняется
внезапностью произошедшего...
32
00:04:20,100 --> 00:04:23,424
...и учитывая высокую оценку,
которую он всем вам давал...
33
00:04:23,791 --> 00:04:26,243
...его приемник будет избран...
34
00:04:26,380 --> 00:04:29,824
...что будет сделано на следующем собрании
всех акционеров...
35
00:04:30,100 --> 00:04:33,861
...которое состоится ровно
через семь дней, если считать
с сегодняшнего дня.
Огромное спасибо Антону Каптелову за перевод фильма!

To download the content you need:
1. Download and install torrent client [for Windows] or for mobile system
2. Click on [Download]
Attention.
If the test YOU are NOT a ROBOT - does not work, then You are using an outdated browser.
Install the current browser and click on [Download]
Security: torrent client is allowed by Kaspersky.

[en.asmlocator.ru].t3983.torrent 
Torrent: Registered [ 2015-11-30 05:45 ] · 2B8D7E44C0C3C2C184E3454D638C8775E1EFC10C

Download .torrent

Download

14 KB

Status: checked
Completed: 0 times
Size: 1.36 GB
terms.php
[Profile] [PM]
Display posts:    
Reply to topic

Current time is: 08-Dec 09:58

All times are UTC ± 0



You cannot post new topics in this forum
You cannot reply to topics in this forum
You cannot edit your posts in this forum
You cannot delete your posts in this forum
You cannot vote in polls in this forum
You cannot attach files in this forum
You can download files in this forum
Верим фактам, а не вранью Путина! Факт, что Правительство ведёт Россию к истреблению.
Так как численность населения падает, даже не смотря на приток эмигрантов!
Русская нация вымирает и вырождается, смешиваясь с эмигрантами!
Факт, что военных и граждан предприятий заставляют голосовать за партию Единая Россия и Путина
ПОД СТРАХОМ УВОЛЬНЕНИЯ!
Нам не нужно Правительство, блокирующее личную жизнь, интернет, нарушающее сохранность данных.
Все эти действия финансируются за счёт народа!