Додж-Сити / Dodge City (Майкл Кёртиц / Michael Curtiz) [1939, США, вестерн, BDRip] MVO (Светла) + Sub Rus + Original Eng

Reply to topic
DL-List and Torrent activity
Size:  1.59 GB   |    Registered:  4 years   |    Completed:  0 times

Seeder not seen: Never

 
   
 
 
Author Message

star21 ®

Gender: Female

Longevity: 4 years 1 month

Posts: 551946

Location: Екатеринбург

Post 30-Nov-2015 05:49

[Quote]

Додж-Сити / Dodge City
Страна: США
Жанр: вестерн
Год выпуска: 1939
Продолжительность: 01:44:01
Перевод: Профессиональный (многоголосый закадровый) - Светла
Cубтитры: русские (полные), русские (на надписи)
Оригинальная аудиодорожка: английский

Режиссер: Майкл Кёртиц / Michael Curtiz
В ролях: Эррол Флинн, Оливия Де Хэвилленд, Энн Шеридан, Брюс Кэбот, Фрэнк МакХью, Алан Хейл, Джон Лител, Генри Треверс, Генри О’Нилл, Виктор ДжориРичман
Описание: Уэйд Хэттон — неутомимый искатель приключений, собирается посетить Додж-Сити, печально известный и широкооткрытый для любителей пострелять приграничный городок. Он со своими приятелями отправляет караван фургонов с переселенцами и стада скота для продажи по направлению к Додж-Сити. Прибыв в Додж-Сити, Уэйд узнает, что Джефф Серретт, бывший угонщик скота, заправляет городком. При помощи своих подручных ондержит жителей городка в страхе. Не желая терпеть издевательств, Уэйд надевает значок шерифа и очищает эту адскую дыру…
Качество видео:
Формат видео: AVI
Видео: 656x480 (1.37:1), 23.976 fps, XviD build 73 ~1798 kbps avg, 0.24 bit/pixel
Аудио: 48 kHz, AC3 Dolby Digital, 2/0 (L,R) ch, ~192 kbps - многоголосый
Аудио: 48 kHz, AC3 Dolby Digital, 1 ch, ~192 kbps - оригинал (отдельным файлом)

MediaInfo

Общее
Полное имя : H:\Dodge.City.1939.bdrip_[1.46]_[teko]\Dodge.City.1939.bdrip_[1.46].avi
Формат : AVI
Формат/Информация : Audio Video Interleave
Размер файла : 1,45 Гбайт
Продолжительность : 1 ч. 44 м.
Общий поток : 2000 Кбит/сек
Программа кодирования : VirtualDubMod 1.5.10.3 | www.virtualdub-fr.org || (build 2550/release)
Библиотека кодирования : VirtualDubMod build 2550/release
Видео
Идентификатор : 0
Формат : MPEG-4 Visual
Профиль формата : Advanced Simple@L5
Параметр BVOP формата : 1
Параметр QPel формата : Нет
Параметр GMC формата : Без точки перехода
Параметр матрицы формата : Выборочная
Идентификатор кодека : XVID
Идентификатор кодека/Подсказка : XviD
Продолжительность : 1 ч. 44 м.
Битрейт : 1799 Кбит/сек
Ширина : 656 пикселей
Высота : 480 пикселей
Соотношение сторон : 4:3
Частота кадров : 23,976 кадра/сек
Цветовое пространство : YUV
Субдискретизация насыщенности : 4:2:0
Битовая глубина : 8 бит
Тип развёртки : Прогрессивная
Метод сжатия : С потерями
Бит/(Пиксели*Кадры) : 0.238
Размер потока : 1,31 Гбайт (90%)
Библиотека кодирования : XviD 73
Аудио
Идентификатор : 1
Формат : AC-3
Формат/Информация : Audio Coding 3
Расширение режима : CM (complete main)
Параметр Endianness формата : Big
Идентификатор кодека : 2000
Продолжительность : 1 ч. 44 м.
Вид битрейта : Постоянный
Битрейт : 192 Кбит/сек
Каналы : 2 канала
Расположение каналов : Front: L R
Частота : 48,0 КГц
Битовая глубина : 16 бит
Метод сжатия : С потерями
Размер потока : 143 Мбайт (10%)
Выравнивание : Разделение по промежуткам
Продолжительность промежутка : 42 мс. (1,00 видеокадр)
Время предзагрузки промежутка : 500 мс.
Релиз группы:
-
-

To download the content you need:
1. Download and install torrent client [for Windows] or for mobile system
2. Click on [Download]
Attention.
If the test YOU are NOT a ROBOT - does not work, then You are using an outdated browser.
Install the current browser and click on [Download]
Security: torrent client is allowed by Kaspersky.

[en.asmlocator.ru].t3981.torrent 
Torrent: Registered [ 2015-11-30 05:45 ] · B45B7E92AB94D3C3C636D29721EAB2006E6126E7

Download .torrent

Download

17 KB

Status: checked
Completed: 0 times
Size: 1.59 GB
terms.php
[Profile] [PM]
Display posts:    
Reply to topic

Current time is: 15-Dec 00:08

All times are UTC ± 0



You cannot post new topics in this forum
You cannot reply to topics in this forum
You cannot edit your posts in this forum
You cannot delete your posts in this forum
You cannot vote in polls in this forum
You cannot attach files in this forum
You can download files in this forum
Верим фактам, а не вранью Путина! Факт, что Правительство ведёт Россию к истреблению.
Так как численность населения падает, даже не смотря на приток эмигрантов!
Русская нация вымирает и вырождается, смешиваясь с эмигрантами!
Факт, что военных и граждан предприятий заставляют голосовать за партию Единая Россия и Путина
ПОД СТРАХОМ УВОЛЬНЕНИЯ!
Нам не нужно Правительство, блокирующее личную жизнь, интернет, нарушающее сохранность данных.
Все эти действия финансируются за счёт народа!