Убийственная леди / Lady Killer (Рой Дель Рут / Roy Del Ruth) [1933, США, Комедия, Криминал, DVDRip] VO (Комаров)

Reply to topic
DL-List and Torrent activity
Size:  874 MB   |    Registered:  4 years   |    Completed:  0 times

Seeder not seen: Never

 
   
 
 
Author Message

star21 ®

Gender: Female

Longevity: 4 years 1 month

Posts: 551946

Location: Екатеринбург

Post 30-Nov-2015 05:49

[Quote]

Убийственная леди / Lady Killer
Страна: США
Студия: Warner Bros
Жанр: Комедия, Криминал
Год выпуска: 1933
Продолжительность: 01:15:34
Перевод: Одноголосый Закадровый "Комаров"
Cубтитры: Нет
Оригинальная аудио дорожка: Английский
Режиссер: Рой Дель Рут / Roy Del Ruth
В ролях:
Джеймс Кэгни / James Cagney... Dan
Мэй Кларк / Mae Clarke... Myra
Маргарет Линдсей / Margaret Lindsay... Lois
Лесли Фентон / Leslie Fenton... Duke
Дагласс Дамбрилл / Douglass Dumbrille... Spade
Расселл Хоптон / Russell Hopton... Smiley
Реймонд Хаттон / Raymond Hatton... Pete
Генри О’Нилл / Henry O'Neill... Ramick

Описание: Когда Дена Квигли увольняют в первый же день работы швейцаром из кинотеатра, он волей случая присоединяется к небольшой банде, считая себя достаточно умелым для незаконной деятельности. В конечном счете, полиция подозревает его и не смотря на попытки скрыться арестовывает. Его девушка вместе с остальной бандой сбегают оставляя его за решеткой. За нехваткой доказательств он вскоре выходит, и день за днем скатывается на дно, пока в Лос-Анджелесе случайно не попадает в кино-индустрию и вскоре поднимается на вершину славы. Но его вновь обретенный успех вызывает интерес его старых уголовных единомышленников, которые решают воспользоваться этим…
Сэмпл: http://sendfile.su/1144940
Качество видео: DVDRip
Формат видео: AVI
Видео: 1188 Кбит/сек / 512 x 384 / 23,976 fps / 4:3
Аудио 1: Russian (MP3, 2ch), 44,1 Кгц, 16 бит, 320 Kбит/сек, Front: L R
Аудио 2: English (MP3, 1ch), 48,0 Кгц, 16 бит, 91,6 Kбит/сек, Front: L R
Кинопоиск: http://www.kinopoisk.ru/film/31144/
IMDb: [imdb]http://www.imdb.com/title/tt0024239[/imdb]

MediaInfo

General
Complete name                            : D:\Фильмы\Lady Killer (1933).avi
Format                                   : AVI
Format/Info                              : Audio Video Interleave
File size                                : 874 MiB
Duration                                 : 1h 15mn
Overall bit rate mode                    : Variable
Overall bit rate                         : 1 617 Kbps
Writing application                      : VirtualDubMod 1.5.10.2 (build 2540/release)
Writing library                          : VirtualDubMod build 2540/release
Video
ID                                       : 0
Format                                   : MPEG-4 Visual
Format profile                           : Advanced Simple@L5
Format settings, BVOP                    : 2
Format settings, QPel                    : No
Format settings, GMC                     : No warppoints
Format settings, Matrix                  : Default (H.263)
Muxing mode                              : Packed bitstream
Codec ID                                 : XVID
Codec ID/Hint                            : XviD
Duration                                 : 1h 15mn
Bit rate                                 : 1 188 Kbps
Width                                    : 512 pixels
Height                                   : 384 pixels
Display aspect ratio                     : 4:3
Frame rate                               : 23.976 fps
Color space                              : YUV
Chroma subsampling                       : 4:2:0
Bit depth                                : 8 bits
Scan type                                : Progressive
Compression mode                         : Lossy
Bits/(Pixel*Frame)                       : 0.252
Stream size                              : 643 MiB (73%)
Writing library                          : XviD 1.1.2 (UTC 2006-11-01)
Audio #1
ID                                       : 1
Format                                   : MPEG Audio
Format version                           : Version 1
Format profile                           : Layer 3
Mode                                     : Joint stereo
Mode extension                           : MS Stereo
Codec ID                                 : 55
Codec ID/Hint                            : MP3
Duration                                 : 1h 15mn
Bit rate mode                            : Constant
Bit rate                                 : 320 Kbps
Channel(s)                               : 2 channels
Sampling rate                            : 44.1 KHz
Compression mode                         : Lossy
Stream size                              : 173 MiB (20%)
Alignment                                : Split accross interleaves
Interleave, duration                     : 42 ms (1.00 video frame)
Interleave, preload duration             : 500 ms
Writing library                          : LAMEUU
Audio #2
ID                                       : 2
Format                                   : MPEG Audio
Format version                           : Version 1
Format profile                           : Layer 3
Codec ID                                 : 55
Codec ID/Hint                            : MP3
Duration                                 : 1h 15mn
Bit rate mode                            : Variable
Bit rate                                 : 91.6 Kbps
Channel(s)                               : 1 channel
Sampling rate                            : 48.0 KHz
Compression mode                         : Lossy
Stream size                              : 49.6 MiB (6%)
Alignment                                : Aligned on interleaves
Interleave, duration                     : 24 ms (0.58 video frame)
Interleave, preload duration             : 599 ms

Скриншот c названием фильма

Скриншоты

To download the content you need:
1. Download and install torrent client [for Windows] or for mobile system
2. Click on [Download]
Attention.
If the test YOU are NOT a ROBOT - does not work, then You are using an outdated browser.
Install the current browser and click on [Download]
Security: torrent client is allowed by Kaspersky.

[en.asmlocator.ru].t3979.torrent 
Torrent: Registered [ 2015-11-30 05:45 ] · 17F34BAEE8694455CE1E55C6F13C4C6F7D28F4E7

Download .torrent

Download

18 KB

Status: checked
Completed: 0 times
Size: 874 MB
terms.php
[Profile] [PM]
Display posts:    
Reply to topic

Current time is: 09-Dec 05:39

All times are UTC ± 0



You cannot post new topics in this forum
You cannot reply to topics in this forum
You cannot edit your posts in this forum
You cannot delete your posts in this forum
You cannot vote in polls in this forum
You cannot attach files in this forum
You can download files in this forum
Верим фактам, а не вранью Путина! Факт, что Правительство ведёт Россию к истреблению.
Так как численность населения падает, даже не смотря на приток эмигрантов!
Русская нация вымирает и вырождается, смешиваясь с эмигрантами!
Факт, что военных и граждан предприятий заставляют голосовать за партию Единая Россия и Путина
ПОД СТРАХОМ УВОЛЬНЕНИЯ!
Нам не нужно Правительство, блокирующее личную жизнь, интернет, нарушающее сохранность данных.
Все эти действия финансируются за счёт народа!