История МакКоннелла / The McConnell Story (Гордон Дуглас / Gordon Douglas) [1955, США, военный, драма, биография, DVDRip] VO (Алексей Багичев)

Reply to topic
DL-List and Torrent activity
Size:  1.37 GB   |    Registered:  4 years   |    Completed:  0 times

Seeder not seen: 3 years 10 months

 
   
 
 
Author Message

star21 ®

Gender: Female

Longevity: 4 years 1 month

Posts: 551946

Location: Екатеринбург

Post 30-Nov-2015 05:49

[Quote]

История МакКоннелла / The McConnell Story Страна: США
Жанр: военный, драма, биография
Год выпуска: 1955
Продолжительность: 01:46:43
Перевод: Одноголосый закадровый Алексей Багичев
Cубтитры: нет
Оригинальная аудиодорожка: нет
Режиссер: Гордон Дуглас / Gordon Douglas
В ролях: Алан Лэдд, Джун Аллисон, Джеймс Уитмор, Фрэнк Фэйлен, Роберт Эллис, Уиллис Бучи, Сара Шелби, Грегори Уэлкотт, Фрэнк Фергюсон, Мюррэй Элпер, Бэйнес Баррон, Пол Бэксли, Джон Берадино, Патриция Блэр, Лиллиэн Бронсон, Сэм Эдвардс, Фрэнк Герстл, Даббс Грир, Брэд Харрис, Сэм Харрис, Олин Ховлин, Уильям Хадсон, Джон Ларч, Перри Лопес
Описание: Фильм основан на реальных фактах из жизни знаменитого аса-истребителя Джозефа Кристофера Макконнелла мл. (1922—1954), сильнейшего летчика Корейской войны. Джозеф Макконнел одержал 16 подтверждённых ВВС США воздушных побед (все - над МиГ-15), совершив 106 боевых вылетов. Он является самым результативным американским лётчиком-истребителем в Корейской войне. После Кореи Макконнелл стал лётчиком-испытателем. 25 августа 1954 года он погиб во время испытательного полёта на новой модификации «Сэйбра» F-86H. По одной из версий, катастрофа произошла из-за отсутствия крепёжного болта...
Доп. информация: Собственный рип.
Сэмпл: http://multi-up.com/1062204
Качество видео: DVDRip
Спасибо alinto за
Формат видео: AVI
Видео: XviD, 704x288 (2.40:1), 23.976 fps, 1637 kbps avg
Аудио: Russian AC3 Dolby Digital, 48 kHz, 2/0 (L,R) ch, 192.00 kbps avg

MediaInfo

General
Complete name : F:\The McConnell Story_1955\The McConnell Story_1955.DVDRip.VO.avi
Format : AVI
Format/Info : Audio Video Interleave
File size : 1.37 GiB
Duration : 1h 46mn
Overall bit rate : 1 839 Kbps
Writing application : VirtualDubMod 1.5.10.3 | www.virtualdub-fr.org || (build 2550/release)
Writing library : VirtualDubMod build 2550/release
Video
ID : 0
Format : MPEG-4 Visual
Format profile : Advanced Simple@L5
Format settings, BVOP : 1
Format settings, QPel : No
Format settings, GMC : No warppoints
Format settings, Matrix : Default (MPEG)
Codec ID : XVID
Codec ID/Hint : XviD
Duration : 1h 46mn
Bit rate : 1 638 Kbps
Width : 704 pixels
Height : 288 pixels
Display aspect ratio : 2.40:1
Frame rate : 23.976 fps
Color space : YUV
Chroma subsampling : 4:2:0
Bit depth : 8 bits
Scan type : Progressive
Compression mode : Lossy
Bits/(Pixel*Frame) : 0.337
Stream size : 1.22 GiB (89%)
Writing library : XviD 73
Audio
ID : 1
Format : AC-3
Format/Info : Audio Coding 3
Mode extension : CM (complete main)
Format settings, Endianness : Big
Codec ID : 2000
Duration : 1h 46mn
Bit rate mode : Constant
Bit rate : 192 Kbps
Channel(s) : 2 channels
Channel positions : Front: L R
Sampling rate : 48.0 KHz
Bit depth : 16 bits
Compression mode : Lossy
Stream size : 147 MiB (10%)
Alignment : Split accross interleaves
Interleave, duration : 42 ms (1.00 video frame)
Interleave, preload duration : 500 ms

Скриншоты

To download the content you need:
1. Download and install torrent client [for Windows] or for mobile system
2. Click on [Download]
Attention.
If the test YOU are NOT a ROBOT - does not work, then You are using an outdated browser.
Install the current browser and click on [Download]
Security: torrent client is allowed by Kaspersky.

[en.asmlocator.ru].t3976.torrent 
Torrent: Registered [ 2015-11-30 05:45 ] · 87CF9CAD3C7B8DFB0748975628127DF03676869F

Download .torrent

Download

14 KB

Status: checked
Completed: 0 times
Size: 1.37 GB
terms.php
[Profile] [PM]
Display posts:    
Reply to topic

Current time is: 14-Dec 00:00

All times are UTC ± 0



You cannot post new topics in this forum
You cannot reply to topics in this forum
You cannot edit your posts in this forum
You cannot delete your posts in this forum
You cannot vote in polls in this forum
You cannot attach files in this forum
You can download files in this forum
Верим фактам, а не вранью Путина! Факт, что Правительство ведёт Россию к истреблению.
Так как численность населения падает, даже не смотря на приток эмигрантов!
Русская нация вымирает и вырождается, смешиваясь с эмигрантами!
Факт, что военных и граждан предприятий заставляют голосовать за партию Единая Россия и Путина
ПОД СТРАХОМ УВОЛЬНЕНИЯ!
Нам не нужно Правительство, блокирующее личную жизнь, интернет, нарушающее сохранность данных.
Все эти действия финансируются за счёт народа!