Саскачеван / Saskatchewan (Рауль Уолш / Raoul Walsh) [1954, Канада, США, приключения, вестерн, DVDRip] VO + Original Eng

Reply to topic
DL-List and Torrent activity
Size:  1.46 GB   |    Registered:  4 years   |    Completed:  0 times

Seeder not seen: Never

 
   
 
 
Author Message

star21 ®

Gender: Female

Longevity: 4 years 1 month

Posts: 551946

Location: Екатеринбург

Post 30-Nov-2015 05:49

[Quote]

Саскачеван / Saskatchewan

Слоган: «The saga of the conquest of the Saskatchewan territory!»
Страна: Канада, США
Студия: Universal International Pictures (UI)
Жанр: приключения, вестерн
Год выпуска: 1954
Продолжительность: 01:23:33
Перевод: Одноголосый закадровый
Cубтитры: нет
Оригинальная аудиодорожка: английский
Режиссер: Рауль Уолш / Raoul Walsh
В ролях: Алан Лэдд, Шелли Уинтерс, Дж. Кэролл Нейш, Хью О’Брайан, Роберт Дуглас, Джордж Дж. Льюис, Ричард Лонг, Джей Сильверхилс, Антонио Морено, Фрэнк Чейз ...
Описание: Пересекая границу на «земли Великой Матери» после разгрома Кастера, сиу сформировали альянс с кри, что заставило королевскую конную полицию конфисковать их оружие и боеприпасы. Красные Куртки транспортируют конфискованное оружие в отдаленный форт терпя столкновения с индейцами на этом пути.
Доп. информация: Рип сделан из этого .-- [imdb]http://www.imdb.com/title/tt0047449[/imdb]--Saskatchewan (1954)_DVDRip_Sample_.avi--Качество видео: DVDRip
Формат видео: AVI
Видео: 720x528 (1.36:1), 25 fps, XviD build 50 ~2109 kbps avg, 0.22 bit/pixel
Аудио 1: 48 kHz, AC3 Dolby Digital, 2/0 (L,R) ch, ~192 kbps, Русский
Аудио 2: 48 kHz, AC3 Dolby Digital, 2/0 (L,R) ch, ~192 kbps, Английский

AviInfo

File: Saskatchewan (1954)_DVDRip_.avi
Title: Saskatchewan (1954)
Copyleft: Ripped_by_rjhlb777
Genre: Adventure, Western
Category: Movie
Comment: VO + Original Eng
FileSize: 1499.09 Mb ( 1 571 913 728 bytes )
Play length: 01:23:33.000 (125325 frames)
Subtitles: Not Present
Video: 720x528 (1.36:1), 25 fps, XviD build 50 ~2109 kbps avg, 0.22 bit/pixel
Audio #1: 48 kHz, AC3 Dolby Digital, 2/0 (L,R) ch, ~192 kbps
Audio #2: 48 kHz, AC3 Dolby Digital, 2/0 (L,R) ch, ~192 kbps

MediaInfo

General
Complete name : C:\Temp\_RELEASES_\Saskatchewan (1954)_DVDRip_.avi
Format : AVI
Format/Info : Audio Video Interleave
File size : 1.46 GiB
Duration : 1h 23mn
Overall bit rate : 2 509 Kbps
Movie name : Saskatchewan (1954)
Genre : Adventure, Western
Writing application : VirtualDubMod 1.5.10.3 | www.virtualdub-fr.org || (build 2550/release)
Original source form/Name : Movie
Copyright : Ripped_by_rjhlb777
Comment : VO + Original Eng
Video
ID : 0
Format : MPEG-4 Visual
Format profile : Advanced Simple@L5
Format settings, BVOP : 1
Format settings, QPel : No
Format settings, GMC : No warppoints
Format settings, Matrix : Default (MPEG)
Codec ID : XVID
Codec ID/Hint : XviD
Duration : 1h 23mn
Bit rate : 2 110 Kbps
Width : 720 pixels
Height : 528 pixels
Display aspect ratio : 4:3
Frame rate : 25.000 fps
Color space : YUV
Chroma subsampling : 4:2:0
Bit depth : 8 bits
Scan type : Progressive
Compression mode : Lossy
Bits/(Pixel*Frame) : 0.222
Stream size : 1.23 GiB (84%)
Writing library : XviD 1.2.1 (UTC 2008-12-04)
Audio #1
ID : 1
Format : AC-3
Format/Info : Audio Coding 3
Mode extension : CM (complete main)
Format settings, Endianness : Big
Codec ID : 2000
Duration : 1h 23mn
Bit rate mode : Constant
Bit rate : 192 Kbps
Channel(s) : 2 channels
Channel positions : Front: L R
Sampling rate : 48.0 KHz
Compression mode : Lossy
Stream size : 115 MiB (8%)
Alignment : Split accross interleaves
Interleave, duration : 40 ms (1.00 video frame)
Interleave, preload duratio : 500 ms
Audio #2
ID : 2
Format : AC-3
Format/Info : Audio Coding 3
Mode extension : CM (complete main)
Format settings, Endianness : Big
Codec ID : 2000
Duration : 1h 23mn
Bit rate mode : Constant
Bit rate : 192 Kbps
Channel(s) : 2 channels
Channel positions : Front: L R
Sampling rate : 48.0 KHz
Compression mode : Lossy
Stream size : 115 MiB (8%)
Alignment : Split accross interleaves
Interleave, duration : 40 ms (1.00 video frame)
Interleave, preload duratio : 500 ms

Скриншоты сравнения

AlexNT
http://screenshotcomparison.com/comparison/138249

To download the content you need:
1. Download and install torrent client [for Windows] or for mobile system
2. Click on [Download]
Attention.
If the test YOU are NOT a ROBOT - does not work, then You are using an outdated browser.
Install the current browser and click on [Download]
Security: torrent client is allowed by Kaspersky.

[en.asmlocator.ru].t3975.torrent 
Torrent: Registered [ 2015-11-30 05:45 ] · AB7DEA011D4B3E601C5F2871CB0588DD4D934D85

Download .torrent

Download

15 KB

Status: checked
Completed: 0 times
Size: 1.46 GB
terms.php
[Profile] [PM]
Display posts:    
Reply to topic

Current time is: 12-Dec 16:53

All times are UTC ± 0



You cannot post new topics in this forum
You cannot reply to topics in this forum
You cannot edit your posts in this forum
You cannot delete your posts in this forum
You cannot vote in polls in this forum
You cannot attach files in this forum
You can download files in this forum
Верим фактам, а не вранью Путина! Факт, что Правительство ведёт Россию к истреблению.
Так как численность населения падает, даже не смотря на приток эмигрантов!
Русская нация вымирает и вырождается, смешиваясь с эмигрантами!
Факт, что военных и граждан предприятий заставляют голосовать за партию Единая Россия и Путина
ПОД СТРАХОМ УВОЛЬНЕНИЯ!
Нам не нужно Правительство, блокирующее личную жизнь, интернет, нарушающее сохранность данных.
Все эти действия финансируются за счёт народа!