Чёртовы лодки / Hell Boats (Пол Уэндкос / Paul Wendkos) [1970, США, военный, драма, DVDRip] VO (Доцент)

Reply to topic
DL-List and Torrent activity
Size:  1.37 GB   |    Registered:  4 years   |    Completed:  1 time

Seeder not seen: 9 months 14 days

 
   
 
 
Author Message

star21 ®

Gender: Female

Longevity: 4 years 1 month

Posts: 551946

Location: Екатеринбург

Post 30-Nov-2015 05:49

[Quote]

Чёртовы лодки / Hell Boats Страна: США
Жанр: военный, драма
Год выпуска: 1970
Продолжительность: 01:35:27
Перевод: Одноголосый закадровый Доцент (Владимир Воронцов)
Cубтитры: нет
Оригинальная аудиодорожка: нет
Режиссер: Пол Уэндкос / Paul Wendkos
В ролях: Джеймс Франсискус, Элизабет Шепард, Рональд Аллен, Реувин Бар-Йотам, Марк Хоукинс, Магда Конопка, Дрюи Хенли, Иниго Джексон, Такис Эммануэль, Филип Мэдок, Джон Дж. Хеллер, Дэвид Сэвил, Шон Баррет, Бернард Дейвис, Мултри Келсалл, Питер Бёртон, Андреас Маландринос
Описание: В 1942 году американский лейтенант-коммандер Джеффордс, находящийся на службе в британском ВМФ, направляется в осажденный остров Мальта, для командования флотилией торпедных катеров. Миссия Джеффордса состоит в уничтожении бывшей итальянской базы подводных лодок в Аугусте (Сицилиия), где находится немецкий арсенал управляемых (планирующих) бомб FX-1400 aka "Fritz X", представляющих большую угрозу кораблям союзников...
Доп. информация: Собственный рип.
Сэмпл: http://multi-up.com/1062255
Качество видео: DVDRip
Формат видео: AVI
Спасибо alinto за
Видео: XviD, 704x384 (1.85:1), 23.976 fps, 1856 kbps avg
Аудио: Russian AC3 Dolby Digital, 48 kHz, 2/0 (L,R) ch, 192.00 kbps avg

MediaInfo

General
Complete name : F:\Hell Boats_1970\Hell Boats_1970.DVDRip.VO.avi
Format : AVI
Format/Info : Audio Video Interleave
File size : 1.37 GiB
Duration : 1h 35mn
Overall bit rate : 2 058 Kbps
Writing application : VirtualDubMod 1.5.10.3 | www.virtualdub-fr.org || (build 2550/release)
Writing library : VirtualDubMod build 2550/release
Video
ID : 0
Format : MPEG-4 Visual
Format profile : Advanced Simple@L5
Format settings, BVOP : 1
Format settings, QPel : No
Format settings, GMC : No warppoints
Format settings, Matrix : Default (MPEG)
Codec ID : XVID
Codec ID/Hint : XviD
Duration : 1h 35mn
Bit rate : 1 856 Kbps
Width : 704 pixels
Height : 384 pixels
Display aspect ratio : 1.85:1
Frame rate : 23.976 fps
Color space : YUV
Chroma subsampling : 4:2:0
Bit depth : 8 bits
Scan type : Progressive
Compression mode : Lossy
Bits/(Pixel*Frame) : 0.286
Stream size : 1.24 GiB (90%)
Writing library : XviD 73
Audio
ID : 1
Format : AC-3
Format/Info : Audio Coding 3
Mode extension : CM (complete main)
Format settings, Endianness : Big
Codec ID : 2000
Duration : 1h 35mn
Bit rate mode : Constant
Bit rate : 192 Kbps
Channel(s) : 2 channels
Channel positions : Front: L R
Sampling rate : 48.0 KHz
Compression mode : Lossy
Stream size : 131 MiB (9%)
Alignment : Split accross interleaves
Interleave, duration : 42 ms (1.00 video frame)
Interleave, preload duratio : 500 ms

Скриншоты

To download the content you need:
1. Download and install torrent client [for Windows] or for mobile system
2. Click on [Download]
Attention.
If the test YOU are NOT a ROBOT - does not work, then You are using an outdated browser.
Install the current browser and click on [Download]
Security: torrent client is allowed by Kaspersky.

[en.asmlocator.ru].t3973.torrent 
Torrent: Registered [ 2015-11-30 05:45 ] · E71D1991C46F0E1AB9353A042261D9A267F6D597

Download .torrent

Download

14 KB

Status: checked
Completed: 1 times
Size: 1.37 GB
terms.php
[Profile] [PM]
Display posts:    
Reply to topic

Current time is: 09-Dec 04:26

All times are UTC ± 0



You cannot post new topics in this forum
You cannot reply to topics in this forum
You cannot edit your posts in this forum
You cannot delete your posts in this forum
You cannot vote in polls in this forum
You cannot attach files in this forum
You can download files in this forum
Верим фактам, а не вранью Путина! Факт, что Правительство ведёт Россию к истреблению.
Так как численность населения падает, даже не смотря на приток эмигрантов!
Русская нация вымирает и вырождается, смешиваясь с эмигрантами!
Факт, что военных и граждан предприятий заставляют голосовать за партию Единая Россия и Путина
ПОД СТРАХОМ УВОЛЬНЕНИЯ!
Нам не нужно Правительство, блокирующее личную жизнь, интернет, нарушающее сохранность данных.
Все эти действия финансируются за счёт народа!