Высок, широкоплеч, прекрасен / Высокий, широкоплечий и красивый / High, Wide, and Handsome (Рубен Мамулян / Rouben Mamoulian) [1937, США, мюзикл, вестерн, DVDRip] VO (Алексей Яковлев) + Original Eng

Reply to topic
DL-List and Torrent activity
Size:  783 MB   |    Registered:  4 years   |    Completed:  0 times

Seeder not seen: Never

 
   
 
 
Author Message

star21 ®

Gender: Female

Longevity: 4 years 1 month

Posts: 551946

Location: Екатеринбург

Post 30-Nov-2015 05:49

[Quote]

Высок, широкоплеч, прекрасен / Высокий, широкоплечий и красивый / High, Wide, and Handsome
Страна: США
Жанр: мюзикл, вестерн
Год выпуска: 1937
Продолжительность: 01:44:26
Перевод: Одноголосый закадровый -
Cубтитры: нет
Оригинальная аудиодорожка: английский
Режиссер: Рубен Мамулян / Rouben Mamoulian
Композитор: Джером Керн / Jerome Kern
В ролях: Айрин Данн / Irene Dunne ... Sally Watterson
Рэндольф Скотт / Randolph Scott ... Peter Cortlandt
Дороти Ламур / Dorothy Lamour ... Molly Fuller
Элизабет Паттерсон / Elizabeth Patterson ... Grandma Cortlandt
Рэймонд Уолбёрн / Raymond Walburn ... Doc Watterson
Чарльз Бикфорд / Charles Bickford ... Red Scanlon
Аким Тамирофф / Akim Tamiroff ... Joe Varese
Бен Блу / Ben Blue ... Zeke
Уильям Фроули / William Frawley ... Mac
Алан Хейл / Alan Hale ... Walt Brennan
Ирвинг Пичел / Irving Pichel ... Mr. Stark
Стэнли Эндрюс / Stanley Andrews ... Lem Moulton
Джеймс Бёрк / James Burke ... Stackpole
Роджер Имхоф / Roger Imhof ... Pop Bowers
Люсьен Литтлфилд / Lucien Littlefield ... Mr. Lippincott
Пернелл Прэтт / Purnell Pratt ... Col. Blake
Эдвард Гарган / Edward Gargan ... Foreman

Описание: Пенсильвания, 1859 год. Железнодорожный магнат Уолт Бреннан хочет завладеть землями фермеров - нефтедобытчиков, во главе которых стоит Питер Кортландт. В это же время в городок приезжает на гастроли со своим шоу Салли Уоттерсон со своим отцом. Когда их вагончик сгорает, погорельцам даёт приют миссис Кортландт – бабушка Питера. Скоро Питер и Салли влюбляются друг в друга.--БОЛЬШОЕ СПАСИБО:
Работа со звуком и реавторинг DVD -
Перевод и озвучивание фильма -
Также Большое Спасибо всем, кто принял участие в появлении озвучки к этому фильму:
Магда, Lafajet, jasenka, елена 22, yanaelisa, atomic dragonfly, surzhoks, HippopotamusIV, cementit, leoder, Ugo927, voostorg, mumzik69, mangust1, keg38, neddgu, BaluBaly, борюська
----Сэмпл: http://multi-up.com/1062282
Качество видео: DVDRip
Формат видео: AVI
Видео: XviD, 512x384 (4:3), 23.976 fps, 815 Kbps
Аудио 1: MP3, 48.0 KHz, 2 ch., 112 Kbps (русский одноголосый закадровый перевод) - Алексей Яковлев
Аудио 2: MP3, 48.0 KHz, 2 ch., 112 Kbps (оригинальная английская звуковая дорожка, лежит отдельно)
(см. "Программы для работы с контейнерами" - > "VirtualDub" или "AVI-Mux")

MediaInfo

AVI-файл:
Общее
Полное имя : K:\раздачи\High, Wide, and Handsome 1937 700MB\High, Wide, and Handsome.avi
Формат : AVI
Формат/Информация : Audio Video Interleave
Размер файла : 699 Мбайт
Продолжительность : 1 ч. 44 м.
Общий поток : 936 Кбит/сек
Программа кодирования : VirtualDubMod 1.5.10.3 | www.virtualdub-fr.org || (build 2550/release)
Библиотека кодирования : VirtualDubMod build 2550/release
Видео
Идентификатор : 0
Формат : MPEG-4 Visual
Профиль формата : Advanced Simple@L5
Параметр BVOP формата : 2
Параметр QPel формата : Нет
Параметр GMC формата : Без точки перехода
Параметр матрицы формата : Default (H.263)
Идентификатор кодека : DX50
Идентификатор кодека/Подсказка : DivX 5
Продолжительность : 1 ч. 44 м.
Битрейт : 815 Кбит/сек
Ширина : 512 пикселей
Высота : 384 пикселя
Соотношение сторон : 4:3
Частота кадров : 23,976 кадра/сек
Цветовое пространство : YUV
Субдискретизация насыщенности : 4:2:0
Битовая глубина : 8 бит
Тип развёртки : Прогрессивная
Метод сжатия : С потерями
Бит/(Пиксели*Кадры) : 0.173
Размер потока : 609 Мбайт (87%)
Библиотека кодирования : XviD 73
Аудио
Идентификатор : 1
Формат : MPEG Audio
Версия формата : Version 1
Профиль формата : Layer 3
Идентификатор кодека : 55
Идентификатор кодека/Подсказка : MP3
Продолжительность : 1 ч. 44 м.
Вид битрейта : Постоянный
Битрейт : 112 Кбит/сек
Каналы : 2 канала
Частота : 48,0 КГц
Метод сжатия : С потерями
Размер потока : 83,7 Мбайт (12%)
Выравнивание : Соединение по промежуткам
Продолжительность промежутка : 42 мс. (1,00 видеокадр)
Время предзагрузки промежутка : 504 мс.
Библиотека кодирования : LAME3.99r
Настройки программы : -m s -V 4 -q 0 -lowpass 15.6 -b 112
английская оригинальная звуковая дорожка, лежит отдельно:
Общее
Полное имя : K:\раздачи\High, Wide, and Handsome 1937 700MB\High, Wide, and Handsome.ENG.mp3
Формат : MPEG Audio
Размер файла : 83,7 Мбайт
Продолжительность : 1 ч. 44 м.
Режим общего битрейта : Постоянный
Общий поток : 112 Кбит/сек
Библиотека кодирования : LAME3.99r
Аудио
Формат : MPEG Audio
Версия формата : Version 1
Профиль формата : Layer 3
Продолжительность : 1 ч. 44 м.
Вид битрейта : Постоянный
Битрейт : 112 Кбит/сек
Каналы : 2 канала
Частота : 48,0 КГц
Метод сжатия : С потерями
Размер потока : 83,7 Мбайт (100%)
Библиотека кодирования : LAME3.99r
Настройки программы : -m s -V 4 -q 0 -lowpass 15.6 -b 112

Исходник

To download the content you need:
1. Download and install torrent client [for Windows] or for mobile system
2. Click on [Download]
Attention.
If the test YOU are NOT a ROBOT - does not work, then You are using an outdated browser.
Install the current browser and click on [Download]
Security: torrent client is allowed by Kaspersky.

[en.asmlocator.ru].t3970.torrent 
Torrent: Registered [ 2015-11-30 05:45 ] · 16186CE8DB7C6FF7D5505326B2054096A6B1AF8E

Download .torrent

Download

16 KB

Status: checked
Completed: 0 times
Size: 783 MB
terms.php
[Profile] [PM]
Display posts:    
Reply to topic

Current time is: 12-Dec 17:20

All times are UTC ± 0



You cannot post new topics in this forum
You cannot reply to topics in this forum
You cannot edit your posts in this forum
You cannot delete your posts in this forum
You cannot vote in polls in this forum
You cannot attach files in this forum
You can download files in this forum
Верим фактам, а не вранью Путина! Факт, что Правительство ведёт Россию к истреблению.
Так как численность населения падает, даже не смотря на приток эмигрантов!
Русская нация вымирает и вырождается, смешиваясь с эмигрантами!
Факт, что военных и граждан предприятий заставляют голосовать за партию Единая Россия и Путина
ПОД СТРАХОМ УВОЛЬНЕНИЯ!
Нам не нужно Правительство, блокирующее личную жизнь, интернет, нарушающее сохранность данных.
Все эти действия финансируются за счёт народа!