Тайный агент 777: Операция "Загадка" / Agente segreto 777 - Operazione Mistero (Энрико Бомба / Enrico Bomba) [1965, Италия, детектив, шпионский, TVRip] Sub Rus (Северный) + Original Ita

Reply to topic
DL-List and Torrent activity
Size:  1.36 GB   |    Registered:  4 years 4 months   |    Completed:  0 times

Seeder not seen: 5 months 16 days

 
   
 
 
Author Message

star21 ®

Gender: Female

Longevity: 4 years 4 months

Posts: 551945

Location: Екатеринбург

Post 30-Nov-2015 05:48

[Quote]

Тайный агент 777: Операция "Загадка" / Agente segreto 777 - Operazione Mistero Страна: Италия
Жанр: детектив, шпионский
Год выпуска: 1965
Продолжительность: 01:27:50
Перевод: Субтитры Северный
Cубтитры: русские
Оригинальная аудиодорожка: итальянский
Режиссер: Энрико Бомба / Enrico Bomba
В ролях: Марк Дэймон, Мэри Янг, Сейна Сейн, Стелио Канделли, Альдо Буфи Ланди, Льюис Джордан, Исарко Раваиоли, Уолтер Нинь, Мария Бадмаев, Франка Дуччо
Описание: Профессору Келлеру удалось совершить научное открытие, которым заинтересовались как медики со всего мира, так и военные. За секретным ноу-хау начинают охотится спецслужбы разных стран. Тайному агенту Бардену, действующему под кодовым номером 777, поручается не допустить утечку информации об открытии за рубеж.
Сэмпл: http://multi-up.com/1062368
Качество видео: TVRip
Формат видео: AVI
Видео: 704x368 (1.91:1), 25 fps, XviD build 47 ~2017 kbps avg, 0.31 bit/pixel
Аудио: 48 kHz, AC3 Dolby Digital, 2/0 (L,R) ch, ~192 kbps
Формат субтитров: softsub (SRT)

MediaInfo

Format : AVI
Format/Info : Audio Video Interleave
File size : 1.36 GiB
Duration : 1h 27mn
Overall bit rate : 2 220 Kbps
Video
ID : 0
Format : MPEG-4 Visual
Format profile : Advanced Simple@L5
Format settings, BVOP : 1
Format settings, QPel : No
Format settings, GMC : No warppoints
Format settings, Matrix : Default (MPEG)
Codec ID : XVID
Codec ID/Hint : XviD
Duration : 1h 27mn
Bit rate : 2 018 Kbps
Width : 704 pixels
Height : 368 pixels
Display aspect ratio : 1.913
Frame rate : 25.000 fps
Color space : YUV
Chroma subsampling : 4:2:0
Bit depth : 8 bits
Scan type : Progressive
Compression mode : Lossy
Bits/(Pixel*Frame) : 0.312
Stream size : 1.24 GiB (91%)
Writing library : XviD 1.2.0.dev47 (UTC 2006-11-01)
Audio
ID : 1
Format : AC-3
Format/Info : Audio Coding 3
Mode extension : CM (complete main)
Format settings, Endianness : Big
Codec ID : 2000
Duration : 1h 27mn
Bit rate mode : Constant
Bit rate : 192 Kbps
Channel(s) : 2 channels
Channel positions : Front: L R
Sampling rate : 48.0 KHz
Bit depth : 16 bits
Compression mode : Lossy
Stream size : 121 MiB (9%)
Alignment : Split accross interleaves
Interleave, duration : 40 ms (1.00 video frame)
Interleave, preload duration : 500 ms

Скриншот c названием фильма

Пример субтитров

1
00:01:08,405 --> 00:01:12,854
Тайный агент 777: Операция "Загадка"
2
00:02:34,913 --> 00:02:36,711
Микрофильм.
3
00:02:50,007 --> 00:02:51,532
Раздвинь занавески.
4
00:02:52,110 --> 00:02:54,260
- Это всё?
- Всё.
5
00:02:54,401 --> 00:02:57,052
К сожалению, кажется, микрофильм
подвергся воздействию света.
6
00:02:57,179 --> 00:03:01,275
Другие негативы исчезли,
но это имя, Келлер...
7
00:03:01,374 --> 00:03:03,285
Вероятно, это зацепка.
8
00:03:03,757 --> 00:03:07,655
Должно быть, речь о профессоре Келлере и его загадочном открытии.
9
00:03:07,741 --> 00:03:10,881
- Можете спросить его.
- Он не ответит.
10
00:03:11,059 --> 00:03:12,481
Войдите.
11
00:03:13,334 --> 00:03:16,577
Доклад о человеке, которого
нашли мёртвым, босс.
12
00:03:17,230 --> 00:03:19,335
Нориджан Ахмед.
13
00:03:19,379 --> 00:03:23,850
Официально занимался продажами
косметики, много путешествовал.
14
00:03:23,930 --> 00:03:27,446
Жил роскошно, далеко не по средствам.
15
00:03:27,553 --> 00:03:30,124
Недавно он был за Железным Занавесом.
16
00:03:30,468 --> 00:03:32,414
Что там с Барденом?
17
00:03:32,565 --> 00:03:35,398
Последнее сообщение лежит у вас на столе.
18
00:03:35,523 --> 00:03:37,730
Заявление об увольнении.
19
00:03:37,865 --> 00:03:40,903
Первый раз об этом слышу,
мне нужен Барден, срочно.
20
00:03:41,022 --> 00:03:44,834
Но он исчез, как я его найду?
21
00:03:45,264 --> 00:03:48,586
Делай что хочешь, звони в
ФБР, Интерпол, он нужен мне.
Огромное спасибо Северному за перевод фильма!

To download the content you need:
1. Download and install torrent client [for Windows] or for mobile system
2. Click on [Download]
Attention.
If the test YOU are NOT a ROBOT - does not work, then You are using an outdated browser.
Install the current browser and click on [Download]

Do not work with Yandex browser. Uploading files to them is erroneous.
Security: torrent client is allowed by Kaspersky.

[en.asmlocator.ru].t3964.torrent 
Torrent: Registered [ 2015-11-30 05:45 ] · 665DA22C46076B7FB084F4D6310D0958FF099DCE

Download .torrent

Download

14 KB

Status: checked
Completed: 0 times
Size: 1.36 GB
terms.php
[Profile] [PM]
Display posts:    
Reply to topic

Current time is: 05-Apr 02:34

All times are UTC ± 0



You cannot post new topics in this forum
You cannot reply to topics in this forum
You cannot edit your posts in this forum
You cannot delete your posts in this forum
You cannot vote in polls in this forum
You cannot attach files in this forum
You can download files in this forum
Верим фактам, а не вранью Путина! Факт, что Правительство ведёт Россию к истреблению.
Так как численность населения падает, даже не смотря на приток эмигрантов!
Русская нация вымирает и вырождается, смешиваясь с эмигрантами!
Факт, что военных и граждан предприятий заставляют голосовать за партию Единая Россия и Путина
ПОД СТРАХОМ УВОЛЬНЕНИЯ!
Нам не нужно Правительство, блокирующее личную жизнь, интернет, нарушающее сохранность данных.
Все эти действия финансируются за счёт народа!