Маленький друг / Целитель / Little Pal / The Healer (Реджинальд Баркер / Reginald Barker) [1935, США, драма, DVDRip] MVO + Original Eng

Reply to topic
DL-List and Torrent activity
Size:  862 MB   |    Registered:  4 years   |    Completed:  0 times

Seeder not seen: Never

 
   
 
 
Author Message

star21 ®

Gender: Female

Longevity: 4 years 1 month

Posts: 551946

Location: Екатеринбург

Post 30-Nov-2015 05:48

[Quote]

Маленький друг / Little Pal / Целитель / The Healer
Страна: США
Жанр: драма
Год выпуска: 1935
Продолжительность: 01:05:12
Перевод: Профессиональный (многоголосый закадровый) - "СВЕТЛА"
Cубтитры: нет
Оригинальная аудиодорожка: английский
Режиссер: Реджинальд Баркер / Reginald Barker
В ролях: Ральф Беллами, Микки Руни, Карен Морли, Джудит Аллен, Роберт МакУэйд, Брюс Уоррен, Дж. Фаррелл МакДональд, Весси Фарелл
Описание: Мальчик Джимми по прозвищу «Солдат» — жизнерадостный ребенок, он оптимистично смотрит на жизнь, несмотря на то, что его ноги парализованы и шанс обрести былую подвижность невелик. Родители мальчика, надеясь на лучшее, отправляют парнишку в небольшой медицинский центр, расположенный в глухом лесу, рядом с источником геотермальной воды. Здесь практикует свой передовой метод лечения доктор Холден, которого в народе прозвали «Целитель». Он лечит хрупкие тела детей массажем и плаванием, тем самым давая детям надежду обретения смысла жизни и веру в мечту. Его метод дает результаты, и он надеется облегчить жизнь многим, построив в этом месте санаторий для парализованных детей. Его любят все пациенты, сотрудники-ассистенты и, конечно, Джимми, ставший ему лучшим другом. Однако, как правило, рядом с такими людьми, как Холден, оказываются нечистые на руку особы, желающие из любой, даже самой благородной, идеи получить деньги и только деньги.
Доп. информация: Первоначально фильм вышел как "The Healer" ("Целитель"), но в 1939 году, когда популярность Микки Руни резко выросла, название поменяли на "Little Pal".
[imdb]http://www.imdb.com/title/tt0026637[/imdb]
Качество видео: DVDRip (by waynes911@CG)
Формат видео: AVI
Видео: 640x480 (1.33:1), 23.976 fps, XviD build 50 ~1577 kbps avg, 0.21 bit/pixel
Аудио 1: 48 kHz, MPEG Layer 3, 2 ch, ~128.00 kbps avg [RUS]
Аудио 2: 48 kHz, MPEG Layer 3, 2 ch, ~128.00 kbps avg [ENG]

MediaInfo

GeneralComplete name                    : ...\Little Pal (aka The Healer) (1935).aviFormat                           : AVIFormat/Info                      : Audio Video InterleaveFile size                        : 862 MiBDuration                         : 1h 5mnOverall bit rate                 : 1 848 KbpsWriting application              : VirtualDubMod 1.5.4.1 (build 2178/release)Writing library                  : VirtualDubMod build 2178/release
VideoID : 0Format : MPEG-4 VisualFormat profile : Advanced Simple@L5Format settings, BVOP : 1Format settings, QPel : NoFormat settings, GMC : No warppointsFormat settings, Matrix : CustomCodec ID : XVIDCodec ID/Hint : XviDDuration : 1h 5mnBit rate : 1 578 KbpsWidth : 640 pixelsHeight : 480 pixelsDisplay aspect ratio : 4:3Frame rate : 23.976 fpsColor space : YUVChroma subsampling : 4:2:0Bit depth : 8 bitsScan type : ProgressiveCompression mode : LossyBits/(Pixel*Frame) : 0.214Stream size : 736 MiB (85%)Writing library : XviD 1.2.1 (UTC 2008-12-04)
Audio #1ID : 1Format : MPEG AudioFormat version : Version 1Format profile : Layer 3Mode : Joint stereoMode extension : MS StereoCodec ID : 55Codec ID/Hint : MP3Duration : 1h 5mnBit rate mode : ConstantBit rate : 128 KbpsChannel(s) : 2 channelsSampling rate : 48.0 KHzCompression mode : LossyStream size : 59.7 MiB (7%)Alignment : Aligned on interleavesInterleave, duration : 42 ms (1.00 video frame)Interleave, preload duration : 504 ms
Audio #2ID : 2Format : MPEG AudioFormat version : Version 1Format profile : Layer 3Mode : Joint stereoMode extension : MS StereoCodec ID : 55Codec ID/Hint : MP3Duration : 1h 5mnBit rate mode : ConstantBit rate : 128 KbpsChannel(s) : 2 channelsSampling rate : 48.0 KHzCompression mode : LossyStream size : 59.7 MiB (7%)Alignment : Aligned on interleavesInterleave, duration : 42 ms (1.00 video frame)Interleave, preload duration : 504 ms

Скриншоты

To download the content you need:
1. Download and install torrent client [for Windows] or for mobile system
2. Click on [Download]
Attention.
If the test YOU are NOT a ROBOT - does not work, then You are using an outdated browser.
Install the current browser and click on [Download]
Security: torrent client is allowed by Kaspersky.

[en.asmlocator.ru].t3954.torrent 
Torrent: Registered [ 2015-11-30 05:45 ] · 39BA29A3EACFA6A22F552E4C6843785DD8DD18EF

Download .torrent

Download

17 KB

Status: checked
Completed: 0 times
Size: 862 MB
terms.php
[Profile] [PM]
Display posts:    
Reply to topic

Current time is: 12-Dec 15:41

All times are UTC ± 0



You cannot post new topics in this forum
You cannot reply to topics in this forum
You cannot edit your posts in this forum
You cannot delete your posts in this forum
You cannot vote in polls in this forum
You cannot attach files in this forum
You can download files in this forum
Верим фактам, а не вранью Путина! Факт, что Правительство ведёт Россию к истреблению.
Так как численность населения падает, даже не смотря на приток эмигрантов!
Русская нация вымирает и вырождается, смешиваясь с эмигрантами!
Факт, что военных и граждан предприятий заставляют голосовать за партию Единая Россия и Путина
ПОД СТРАХОМ УВОЛЬНЕНИЯ!
Нам не нужно Правительство, блокирующее личную жизнь, интернет, нарушающее сохранность данных.
Все эти действия финансируются за счёт народа!