Фильм любви и анархии / Film d\'amore e d\'anarchia (Лина Вертмюллер / Lina Wertmüller (Wertmuller)) [1973, Италия, драма, мелодрама, комедия, DVDRip] VO (TV Петербург) + Original Ita

Reply to topic
DL-List and Torrent activity
Size:  2.19 GB   |    Registered:  4 years   |    Completed:  0 times

Seeder not seen: Never

 
   
 
 
Author Message

star21 ®

Gender: Female

Longevity: 4 years 1 month

Posts: 551946

Location: Екатеринбург

Post 30-Nov-2015 05:48

[Quote]

Фильм любви и анархии, или Сегодня в десять утра на Виа деи Фьори в известном доме терпимости / Film d'amore e d'anarchia, ovvero 'stamattina alle 10 in via dei Fiori nella nota casa di tolleranza...'
Страна: Италия
Студия: Euro International Film (EIA)
Жанр: драма, мелодрама, комедия
Год выпуска: 1973
Продолжительность: 02:00:01
Перевод: Студийный (одноголосый закадровый) - "TV Петербург"
Cубтитры: Нет
Оригинальная аудиодорожка: итальянский
Режиссер: Лина Вертмюллер / Lina Wertmüller (Wertmuller)
В ролях: Джанкарло Джаннини, Марианджела Мелато, Эрос Паньи, Пина Чеи, Елена Фьоре, Джулиана Каландра, Иза Беллини, Иза Даниэли, Энрика Бонаккорти, Анна Бонаюто ...
Описание: В публичный дом в Риме из Парижа приезжает анархист с детскими, испуганными глазами, всклокоченной головой и с множеством веснушек. Он приезжает к связной Саломее, которая работает там по специальности. Она должна помочь ему с убийством Бенито Муссолини и выдает его за своего кузена. Робкий парень в первый раз оказался в публичном доме…
Доп. информация: Рип сделан из этого .-- [imdb]http://www.imdb.com/title/tt0070061[/imdb]--Film d'amore e d'anarchia (1973)_DVDRip_.Sample_.avi-
-

Награды


-
-

...из книги «3500 кинорецензий»


-
-Качество видео: DVDRip
Формат видео: AVI
Видео: 704x384 (1.83:1), 25 fps, XviD build 50 ~2223 kbps avg, 0.33 bit/pixel
Аудио 1: 48 kHz, AC3 Dolby Digital, 2/0 (L,R) ch, ~192 kbps, Русский
Аудио 2: 48 kHz, AC3 Dolby Digital, 2/0 (L,R) ch, ~192 kbps, Итальянский

AviInfo

File: Film d'amore e d'anarchia (1973)_DVDRip_.avi
Title: Film d'amore e d'anarchia (1973)
Copyleft: Ripped_by_rjhlb777
Genre: Comedy, Drama, Romance
Category: Movie
Comment: VO ("TV Петербург") + Original Ita
FileSize: 2244.84 Mb ( 2 353 889 280 bytes )
Play length: 02:00:01.000 (180025 frames)
Subtitles: Not Present
Video: 704x384 (1.83:1), 25 fps, XviD build 50 ~2223 kbps avg, 0.33 bit/pixel
Audio #1: 48 kHz, AC3 Dolby Digital, 2/0 (L,R) ch, ~192 kbps
Audio #2: 48 kHz, AC3 Dolby Digital, 2/0 (L,R) ch, ~192 kbps

MediaInfo

General
Complete name : C:\Temp\_RELEASES_\Film d'amore e d'anarchia (1973)_DVDRip_.avi
Format : AVI
Format/Info : Audio Video Interleave
Format profile : OpenDML
File size : 2.19 GiB
Duration : 2h 0mn
Overall bit rate : 2 615 Kbps
Movie name : Film d'amore e d'anarchia (1973)
Genre : Comedy, Drama, Romance
Writing application : VirtualDubMod 1.5.10.3 | www.virtualdub-fr.org || (build 2550/release)
Original source form/Name : Movie
Copyright : Ripped_by_rjhlb777
Comment : VO ("TV Петербург") + Original Ita
Video
ID : 0
Format : MPEG-4 Visual
Format profile : Advanced Simple@L5
Format settings, BVOP : 1
Format settings, QPel : No
Format settings, GMC : No warppoints
Format settings, Matrix : Default (MPEG)
Codec ID : XVID
Codec ID/Hint : XviD
Duration : 2h 0mn
Bit rate : 2 213 Kbps
Width : 704 pixels
Height : 384 pixels
Display aspect ratio : 1.85:1
Frame rate : 25.000 fps
Color space : YUV
Chroma subsampling : 4:2:0
Bit depth : 8 bits
Scan type : Progressive
Compression mode : Lossy
Bits/(Pixel*Frame) : 0.327
Stream size : 1.85 GiB (85%)
Writing library : XviD 1.2.1 (UTC 2008-12-04)
Audio #1
ID : 1
Format : AC-3
Format/Info : Audio Coding 3
Mode extension : CM (complete main)
Format settings, Endianness : Big
Codec ID : 2000
Duration : 2h 0mn
Bit rate mode : Constant
Bit rate : 192 Kbps
Channel(s) : 2 channels
Channel positions : Front: L R
Sampling rate : 48.0 KHz
Compression mode : Lossy
Stream size : 165 MiB (7%)
Alignment : Split accross interleaves
Interleave, duration : 40 ms (1.00 video frame)
Interleave, preload duratio : 500 ms
Audio #2
ID : 2
Format : AC-3
Format/Info : Audio Coding 3
Mode extension : CM (complete main)
Format settings, Endianness : Big
Codec ID : 2000
Duration : 2h 0mn
Bit rate mode : Constant
Bit rate : 192 Kbps
Channel(s) : 2 channels
Channel positions : Front: L R
Sampling rate : 48.0 KHz
Compression mode : Lossy
Stream size : 165 MiB (7%)
Alignment : Split accross interleaves
Interleave, duration : 40 ms (1.00 video frame)
Interleave, preload duratio : 500 ms

Скриншоты сравнения

H.pkin
http://screenshotcomparison.com/comparison/138749/picture:2

To download the content you need:
1. Download and install torrent client [for Windows] or for mobile system
2. Click on [Download]
Attention.
If the test YOU are NOT a ROBOT - does not work, then You are using an outdated browser.
Install the current browser and click on [Download]
Security: torrent client is allowed by Kaspersky.

[en.asmlocator.ru].t3953.torrent 
Torrent: Registered [ 2015-11-30 05:45 ] · 992A7D774D2FC69D8EC682439F5DABCE6B3F0B34

Download .torrent

Download

11 KB

Status: checked
Completed: 0 times
Size: 2.19 GB
terms.php
[Profile] [PM]
Display posts:    
Reply to topic

Current time is: 14-Dec 23:44

All times are UTC ± 0



You cannot post new topics in this forum
You cannot reply to topics in this forum
You cannot edit your posts in this forum
You cannot delete your posts in this forum
You cannot vote in polls in this forum
You cannot attach files in this forum
You can download files in this forum
Верим фактам, а не вранью Путина! Факт, что Правительство ведёт Россию к истреблению.
Так как численность населения падает, даже не смотря на приток эмигрантов!
Русская нация вымирает и вырождается, смешиваясь с эмигрантами!
Факт, что военных и граждан предприятий заставляют голосовать за партию Единая Россия и Путина
ПОД СТРАХОМ УВОЛЬНЕНИЯ!
Нам не нужно Правительство, блокирующее личную жизнь, интернет, нарушающее сохранность данных.
Все эти действия финансируются за счёт народа!