Я люблю Мелвина / Я люблю Мэлвина / I Love Melvin (Дон Уайс / Don Weis) [1953, США, мюзикл, мелодрама, комедия, DVDRip] VO (Stalk) + Original Eng

Reply to topic
DL-List and Torrent activity
Size:  1.37 GB   |    Registered:  4 years 4 months   |    Completed:  0 times

Seeder not seen: Never

 
   
 
 
Author Message

star21 ®

Gender: Female

Longevity: 4 years 5 months

Posts: 551945

Location: Екатеринбург

Post 30-Nov-2015 05:48

[Quote]

Я люблю Мелвина / Я люблю Мэлвина / I Love Melvin
Страна: США
Жанр: мюзикл, мелодрама, комедия
Год выпуска: 1953
Продолжительность: 01:17:20
Перевод: Одноголосый закадровый - Stalk (Никита Кирдин)
Cубтитры: русские (только на песни)
Оригинальная аудиодорожка: английский
Режиссер: Дон Уайс / Don Weis
Композитор: Джордж Столл / George Stoll
В ролях: Дональд О’Коннор / Donald O'Connor ... Melvin Hoover
Дебби Рейнолдс / Debbie Reynolds ... Judy Schneider / Judy LeRoy
Уна Меркел / Una Merkel ... Mom Schneider
Ричард Андерсон / Richard Anderson ... Harry Flack
Эллин Джослин / Allyn Joslyn ... Frank Schneider
Лес Тремейн / Les Tremayne ... Mr. Henneman
Донна Коркоран / Noreen Corcoran ... Clarabelle Schneider
Джим Бакус / Jim Backus ... Mergo
Барбара Руик / Barbara Ruick ... Studio Guide
Роберт Тейлор / Robert Taylor ... играет самого себя, камео in Judy's Dream
Описание: Однажды в Центральном парке Мелвин Гувер, подающий надежды фотограф из журнала „Look“, случайно сталкивается с молодой актрисой Джуди Шнайдер. Он с первого взгляда влюбляется в неё и даже просит руки Джуди, но сталкивается с неодобрением её отца, который хочет, чтобы Джуди вышла замуж за Гарри Флэка, скучного наследника бумажной компании. Тогда Мелвин преувеличивает свою важность в журнале, чтобы произвести впечатление на Джуди и ее семью, и обещает, что фотография Джуди появится на обложке ближайшего выпуска журнала „Look“. Но, как говорится, проще сказать, чем сделать...--БОЛЬШОЕ СПАСИБО:
Работа со звуком и реавторинг DVD -
Перевод и озвучивание фильма, создание русских субтитров на песни - Stalk (Никита Кирдин)
Также Большое Спасибо всем, кто принял участие в появлении перевода к этому фильму:
Lafajet, Магда, jasenka, елена 22, yanaelisa, atomic dragonfly, cementit, voostorg, борюська, mumzik69, leoder, Simpun, keg38, surzhoks, sin58, Patsy+, neddgu
----Сэмпл: http://multi-up.com/1062744
Качество видео: DVDRip
Формат видео: AVI
Видео: XviD, 624x480 (4:3), 23.976 fps, 2138 Kbps
Аудио 1: AC3, 48.0 KHz, 2 ch., 192 Kbps (русский одноголосый закадровый перевод) - Stalk (Никита Кирдин)
Аудио 2: AC3, 48.0 KHz, 2 ch., 192 Kbps (оригинальная английская звуковая дорожка)

MediaInfo

Общее
Полное имя : K:\раздачи\I Love Melvin 1953\I Love Melvin.avi
Формат : AVI
Формат/Информация : Audio Video Interleave
Размер файла : 1,37 Гбайт
Продолжительность : 1 ч. 17 м.
Общий поток : 2536 Кбит/сек
Программа кодирования : VirtualDubMod 1.5.10.3 | www.virtualdub-fr.org || (build 2550/release)
Библиотека кодирования : VirtualDubMod build 2550/release
Видео
Идентификатор : 0
Формат : MPEG-4 Visual
Профиль формата : Advanced Simple@L5
Параметр BVOP формата : 2
Параметр QPel формата : Нет
Параметр GMC формата : Без точки перехода
Параметр матрицы формата : Default (H.263)
Идентификатор кодека : DX50
Идентификатор кодека/Подсказка : DivX 5
Продолжительность : 1 ч. 17 м.
Битрейт : 2138 Кбит/сек
Ширина : 624 пикселя
Высота : 480 пикселей
Соотношение сторон : 4:3
Частота кадров : 23,976 кадра/сек
Цветовое пространство : YUV
Субдискретизация насыщенности : 4:2:0
Битовая глубина : 8 бит
Тип развёртки : Прогрессивная
Метод сжатия : С потерями
Бит/(Пиксели*Кадры) : 0.298
Размер потока : 1,15 Гбайт (84%)
Библиотека кодирования : XviD 73
Аудио #1
Идентификатор : 1
Формат : AC-3
Формат/Информация : Audio Coding 3
Расширение режима : CM (complete main)
Параметр Endianness формата : Big
Идентификатор кодека : 2000
Продолжительность : 1 ч. 17 м.
Вид битрейта : Постоянный
Битрейт : 192 Кбит/сек
Каналы : 2 канала
Расположение каналов : Front: L R
Частота : 48,0 КГц
Битовая глубина : 16 бит
Метод сжатия : С потерями
Размер потока : 106 Мбайт (8%)
Выравнивание : Разделение по промежуткам
Продолжительность промежутка : 42 мс. (1,00 видеокадр)
Время предзагрузки промежутка : 500 мс.
Аудио #2
Идентификатор : 2
Формат : AC-3
Формат/Информация : Audio Coding 3
Расширение режима : CM (complete main)
Параметр Endianness формата : Big
Идентификатор кодека : 2000
Продолжительность : 1 ч. 17 м.
Вид битрейта : Постоянный
Битрейт : 192 Кбит/сек
Каналы : 2 канала
Расположение каналов : Front: L R
Частота : 48,0 КГц
Битовая глубина : 16 бит
Метод сжатия : С потерями
Размер потока : 106 Мбайт (8%)
Выравнивание : Разделение по промежуткам
Продолжительность промежутка : 42 мс. (1,00 видеокадр)
Время предзагрузки промежутка : 500 мс.

Исходник

To download the content you need:
1. Download and install torrent client [for Windows] or for mobile system
2. Click on [Download]
Attention.
If the test YOU are NOT a ROBOT - does not work, then You are using an outdated browser.
Install the current browser and click on [Download]

Do not work with Yandex browser. Uploading files to them is erroneous.
Security: torrent client is allowed by Kaspersky.

[en.asmlocator.ru].t3951.torrent 
Torrent: Registered [ 2015-11-30 05:45 ] · 958E90CB2FA159368EA531EFAFEDABA344CE70B4

Download .torrent

Download

14 KB

Status: checked
Completed: 0 times
Size: 1.37 GB
terms.php
[Profile] [PM]
Display posts:    
Reply to topic

Current time is: 07-Apr 20:32

All times are UTC ± 0



You cannot post new topics in this forum
You cannot reply to topics in this forum
You cannot edit your posts in this forum
You cannot delete your posts in this forum
You cannot vote in polls in this forum
You cannot attach files in this forum
You can download files in this forum
Верим фактам, а не вранью Путина! Факт, что Правительство ведёт Россию к истреблению.
Так как численность населения падает, даже не смотря на приток эмигрантов!
Русская нация вымирает и вырождается, смешиваясь с эмигрантами!
Факт, что военных и граждан предприятий заставляют голосовать за партию Единая Россия и Путина
ПОД СТРАХОМ УВОЛЬНЕНИЯ!
Нам не нужно Правительство, блокирующее личную жизнь, интернет, нарушающее сохранность данных.
Все эти действия финансируются за счёт народа!