Большая белая надежда / The Great White Hope (Мартин Ритт / Martin Ritt) [1970, США, драма, мелодрама, спорт, DVDRip] MVO (1 Канал) + MVO (5 Канал) + Original Eng

Reply to topic
DL-List and Torrent activity
Size:  933 MB   |    Registered:  4 years   |    Completed:  0 times

Seeder not seen: Never

 
   
 
 
Author Message

star21 ®

Gender: Female

Longevity: 4 years 1 month

Posts: 551946

Location: Екатеринбург

Post 30-Nov-2015 05:48

[Quote]

Большая белая надежда / The Great White Hope
Страна: США
Жанр: драма, мелодрама, спорт
Год выпуска: 1970
Продолжительность: 01:42:52
Перевод 1: Профессиональный (многоголосый закадровый) 1 Канал
Перевод 2: Профессиональный (многоголосый закадровый) 5 Канал
Cубтитры: нет
Оригинальная аудиодорожка: английский
Режиссер: Мартин Ритт /Martin Ritt
В ролях: Джеймс Эрл Джонс, Джейн Александр, Лу Гилберт, Честер Моррис, Роберт Уэббер, Марлен Уорфилд, Р.Г. Армстронг, Хэл Холбрук, Би Ричардс, Моузес Ганн
Описание: Боксер Джек Джефферсон, победив в Неваде Фрэнка Барди, становится первым афроамериканцем, выигравшим титул чемпиона мира в тяжелом весе. Однако, как только Джефферсон вместе со своей белой подругой Элеонор пересекает границу штата, его арестовывают и осуждают за нарушение закона о смешении рас. Приговоренный к трем годам тюрьмы Джек совершает побег и покидает Америку.
Но, имея неблагонадежную репутацию, он не может найти работу. Неожиданно Джек получает предложение, дающее возможность поправить дела и вернуться в большой спорт: он должен принять участие в боях за звание чемпиона мира и поддаться белому сопернику…
Сэмпл: http://multi-up.com/1062782

Качество видео: DVDRip -
Формат видео: AVI
Видео: 688x288 (2.39:1), 23.976 fps, XviD, 874 kbps, 0.18 bit/pixel
Аудио 1: 48 kHz, MPEG Layer 3, 2 ch, 128.00 kbps, МVO (1 Канал)
Аудио 2: 48 kHz, MPEG Layer 3, 2 ch, 128.00 kbps, МVO (5 Канал) - Отдельно.
Аудио 3: 48 kHz, MPEG Layer 3, 2 ch, 128.00 kbps, Original (Eng) - Отдельно.

MediaInfo

General
Complete name : E:\Раздачи\rutracker.org\Bolshaja_belaja_nadezhda_745_by_max1wq\Bolshaja_belaja_nadezhda_745_by_max1wq.5 канал.mp3
Format : MPEG Audio
File size : 94.1 MiB
Duration : 1h 42mn
Overall bit rate mode : Constant
Overall bit rate : 128 Kbps
Genre : Other
Audio
Format : MPEG Audio
Format version : Version 1
Format profile : Layer 3
Duration : 1h 42mn
Bit rate mode : Constant
Bit rate : 128 Kbps
Channel(s) : 2 channels
Sampling rate : 48.0 KHz
Compression mode : Lossy
Stream size : 94.1 MiB (100%)
General
Complete name : E:\Раздачи\rutracker.org\Bolshaja_belaja_nadezhda_745_by_max1wq\Bolshaja_belaja_nadezhda_745_by_max1wq.avi
Format : AVI
Format/Info : Audio Video Interleave
File size : 745 MiB
Duration : 1h 42mn
Overall bit rate : 1 012 Kbps
Writing application : VirtualDubMod 1.5.10.2 (build 2540/release)
Writing library : VirtualDubMod build 2540/release
Video
ID : 0
Format : MPEG-4 Visual
Format profile : Advanced Simple@L5
Format settings, BVOP : 2
Format settings, QPel : No
Format settings, GMC : No warppoints
Format settings, Matrix : Custom
Codec ID : XVID
Codec ID/Hint : XviD
Duration : 1h 42mn
Bit rate : 875 Kbps
Width : 688 pixels
Height : 288 pixels
Display aspect ratio : 2.40:1
Frame rate : 23.976 fps
Color space : YUV
Chroma subsampling : 4:2:0
Bit depth : 8 bits
Scan type : Progressive
Compression mode : Lossy
Bits/(Pixel*Frame) : 0.184
Stream size : 644 MiB (86%)
Writing library : XviD 73
Audio
ID : 1
Format : MPEG Audio
Format version : Version 1
Format profile : Layer 3
Codec ID : 55
Codec ID/Hint : MP3
Duration : 1h 42mn
Bit rate mode : Constant
Bit rate : 128 Kbps
Channel(s) : 2 channels
Sampling rate : 48.0 KHz
Compression mode : Lossy
Stream size : 94.2 MiB (13%)
Alignment : Aligned on interleaves
Interleave, duration : 42 ms (1.00 video frame)
Interleave, preload duration : 504 ms
General
Complete name : E:\Раздачи\rutracker.org\Bolshaja_belaja_nadezhda_745_by_max1wq\Bolshaja_belaja_nadezhda_745_by_max1wq.Eng.mp3
Format : MPEG Audio
File size : 94.2 MiB
Duration : 1h 42mn
Overall bit rate mode : Constant
Overall bit rate : 128 Kbps
Genre : Other
Audio
Format : MPEG Audio
Format version : Version 1
Format profile : Layer 3
Duration : 1h 42mn
Bit rate mode : Constant
Bit rate : 128 Kbps
Channel(s) : 2 channels
Sampling rate : 48.0 KHz
Compression mode : Lossy
Stream size : 94.2 MiB (100%)

To download the content you need:
1. Download and install torrent client [for Windows] or for mobile system
2. Click on [Download]
Attention.
If the test YOU are NOT a ROBOT - does not work, then You are using an outdated browser.
Install the current browser and click on [Download]
Security: torrent client is allowed by Kaspersky.

[en.asmlocator.ru].t3949.torrent 
Torrent: Registered [ 2015-11-30 05:45 ] · DE250C96B82DEB67996DB38F86C16B8BB49EAD13

Download .torrent

Download

19 KB

Status: checked
Completed: 0 times
Size: 933 MB
terms.php
[Profile] [PM]
Display posts:    
Reply to topic

Current time is: 12-Dec 02:39

All times are UTC ± 0



You cannot post new topics in this forum
You cannot reply to topics in this forum
You cannot edit your posts in this forum
You cannot delete your posts in this forum
You cannot vote in polls in this forum
You cannot attach files in this forum
You can download files in this forum
Верим фактам, а не вранью Путина! Факт, что Правительство ведёт Россию к истреблению.
Так как численность населения падает, даже не смотря на приток эмигрантов!
Русская нация вымирает и вырождается, смешиваясь с эмигрантами!
Факт, что военных и граждан предприятий заставляют голосовать за партию Единая Россия и Путина
ПОД СТРАХОМ УВОЛЬНЕНИЯ!
Нам не нужно Правительство, блокирующее личную жизнь, интернет, нарушающее сохранность данных.
Все эти действия финансируются за счёт народа!