Сага о женщинах-викингах и их путешествии по водам Великого змеиного моря / The Saga of the Viking Women and Their Voyage to the Waters of the Great Sea Serpent (Роджер Корман / Roger Corman) [1957, США, Приключения, DVDRip] + Sub Rus

Reply to topic
DL-List and Torrent activity
Size:  700 MB   |    Registered:  4 years   |    Completed:  1 time

Seeder not seen: 1 month 23 days

 
   
 
 
Author Message

star21 ®

Gender: Female

Longevity: 4 years 1 month

Posts: 551946

Location: Екатеринбург

Post 30-Nov-2015 05:48

[Quote]

Сага о женщинах-викингах и их путешествии по водам Великого змеиного моря / The Saga of the Viking Women and Their Voyage to the Waters of the Great Sea Serpent
Страна: США
Жанр: Приключения
Год выпуска: 1957
Продолжительность: 01:02:44
Перевод: Субтитры андрей-д
Cубтитры: русские
Оригинальная аудиодорожка: английский
Режиссер: Роджер Корман / Roger Corman
В ролях: Эбби Далтон, Сюзан Кэбот, Брэдфорд Джексон, Джун Кенни, Ричард Девон, Бетси Джонс-Морланд, Джонатан Хэйз, Джей Сайер, Линетт Берней, Сэлли Тодд
Описание: Давным-давно мужчины одного из северных поселений отправились на охоту, да так и не вернулись. Устав ждать своих благоверных, их жёны соорудили небольшой кораблик и поплыли на поиски. Впрочем, судно вскоре пошло ко дну, а остатки женского экипажа оказались выброшенными на берег отдалённого острова…
Доп. информация: Рип, предоставила larisa547.
Сэмпл: http://multi-up.com/1062749
Качество видео: DVDRip
Формат видео: AVI
Видео: 512x384 (1.33:1), 25 fps, XviD Final 1.1 (build 41) ~1393 kbps avg, 0.28 bit/pixel
Аудио: 48 kHz, MPEG Layer 3, 2 ch, ~160.00 kbps avg
Формат субтитров: softsub (SRT)

MediaInfo

Format : AVI
Format/Info : Audio Video Interleave
File size : 700 MiB
Duration : 1h 2mn
Overall bit rate : 1 560 Kbps
Writing application : VirtualDubMod 1.5.4.1 (build 2178/release)
Writing library : VirtualDubMod build 2178/release
Video
ID : 0
Format : MPEG-4 Visual
Format profile : Advanced Simple@L5
Format settings, BVOP : Yes
Format settings, QPel : No
Format settings, GMC : No warppoints
Format settings, Matrix : Custom
Codec ID : XVID
Codec ID/Hint : XviD
Duration : 1h 2mn
Bit rate : 1 393 Kbps
Width : 512 pixels
Height : 384 pixels
Display aspect ratio : 4:3
Frame rate : 25.000 fps
Color space : YUV
Chroma subsampling : 4:2:0
Bit depth : 8 bits
Scan type : Progressive
Compression mode : Lossy
Bits/(Pixel*Frame) : 0.283
Stream size : 625 MiB (89%)
Writing library : XviD 1.1.0 (UTC 2005-11-22)
Audio
ID : 1
Format : MPEG Audio
Format version : Version 1
Format profile : Layer 3
Mode : Joint stereo
Mode extension : MS Stereo
Codec ID : 55
Codec ID/Hint : MP3
Duration : 1h 2mn
Bit rate mode : Constant
Bit rate : 160 Kbps
Channel count : 2 channels
Sampling rate : 48.0 KHz
Compression mode : Lossy
Stream size : 71.8 MiB (10%)
Alignment : Aligned on interleaves
Interleave, duration : 80 ms (2.00 video frames)
Interleave, preload duration : 504 ms
Writing library : LAME3.97b
Encoding settings : -m j -V 4 -q 2 -lowpass 17.5 -b 160
Language : English

Скриншот c названием фильма

Скриншоты

Пример субтитров

1
00:00:23,545 --> 00:00:26,343
Сага о женщинах-викингах
2
00:00:26,545 --> 00:00:29,503
и их путешествии по водам Великого змеиного моря
3
00:01:39,385 --> 00:01:41,023
Когда, мир был ещё молод
4
00:01:41,505 --> 00:01:44,338
и боги не отвернулись от людей,
5
00:01:44,905 --> 00:01:48,375
на северных землях жил великий народ.
6
00:01:49,345 --> 00:01:51,654
Когда, их скалистый берег и запретные горы
7
00:01:51,865 --> 00:01:53,776
не смогли больше дать им
средств к существованию,
8
00:01:54,225 --> 00:01:55,863
мужчины, попрощавшись с женщинами,
9
00:01:56,505 --> 00:01:58,700
смело отправились в путешествие, навстречу
приключениям в неизвестном направлении.
10
00:02:00,265 --> 00:02:02,984
Когда пошло три года,
мужественные женщины устали ждать,
11
00:02:03,665 --> 00:02:05,542
возвращения своих мужчин и собрались вместе,
12
00:02:05,745 --> 00:02:08,259
чтобы обсудить и решить:
идти ли, им искать своих мужчин.
13
00:02:09,225 --> 00:02:11,136
Решили: голосовать по законам викингов.
14
00:02:12,865 --> 00:02:13,934
Голосую, за.
15
00:02:19,825 --> 00:02:20,860
Остаёмся. - Нет.
- Да.
16
00:02:30,745 --> 00:02:33,418
Тира! Боги, предупреждают нас!
17
00:02:33,905 --> 00:02:35,577
Будет, беда.
18
00:02:36,025 --> 00:02:37,140
Прекрати!
19
00:02:37,825 --> 00:02:39,975
Мне, стыдно за вас,
женщины Стонфьорда.
20
00:02:40,225 --> 00:02:42,944
Это была твоя идея, Дезире, а не наша.

To download the content you need:
1. Download and install torrent client [for Windows] or for mobile system
2. Click on [Download]
Attention.
If the test YOU are NOT a ROBOT - does not work, then You are using an outdated browser.
Install the current browser and click on [Download]
Security: torrent client is allowed by Kaspersky.

[en.asmlocator.ru].t3948.torrent 
Torrent: Registered [ 2015-11-30 05:45 ] · 1E081580FCCC4EAF9935B35B2250B03EB08F0692

Download .torrent

Download

15 KB

Status: checked
Completed: 1 times
Size: 700 MB
terms.php
[Profile] [PM]
Display posts:    
Reply to topic

Current time is: 12-Dec 03:06

All times are UTC ± 0



You cannot post new topics in this forum
You cannot reply to topics in this forum
You cannot edit your posts in this forum
You cannot delete your posts in this forum
You cannot vote in polls in this forum
You cannot attach files in this forum
You can download files in this forum
Верим фактам, а не вранью Путина! Факт, что Правительство ведёт Россию к истреблению.
Так как численность населения падает, даже не смотря на приток эмигрантов!
Русская нация вымирает и вырождается, смешиваясь с эмигрантами!
Факт, что военных и граждан предприятий заставляют голосовать за партию Единая Россия и Путина
ПОД СТРАХОМ УВОЛЬНЕНИЯ!
Нам не нужно Правительство, блокирующее личную жизнь, интернет, нарушающее сохранность данных.
Все эти действия финансируются за счёт народа!