Под игом / Pod igoto / Под игото (Дако Даковский / Dako Dakovski) [1952 г., Болгария, Исторический, DVDRip] MVO + Sub

Reply to topic
DL-List and Torrent activity
Size:  1.46 GB   |    Registered:  4 years   |    Completed:  1 time

Seeder not seen: 1 month 20 days

 
   
 
 
Author Message

star21 ®

Gender: Female

Longevity: 4 years 1 month

Posts: 551946

Location: Екатеринбург

Post 30-Nov-2015 05:48

[Quote]

Под игом / Pod igoto / Под игото
Страна: Болгария
Жанр: Исторический
Год выпуска: 1952
Продолжительность: 01:52:11
Перевод: Любительский (многоголосый закадровый) - Колобок
Перевод 2: Субтитры любительские (Антон Каптелов)
Cубтитры: русские
Оригинальная аудиодорожка: нет
Режиссер: Дако Даковский / Dako Dakovski
В ролях: Мирослав Миндов, Лили Попиванова, Петко Карлуковски, Васил Кирков, Петар Дмитров, Ганчо Ганчев, Стефан Пейчев, Никола Попов, Константин Кисимов, Иван Димов
Описание: Экранизация одноименного романа Ивана Вазова.
Фильм рассказывает о сложной борьбе болгарского народа за свободу от турецкого гнета и об освобождении Болгарии русскими войсками вместе с болгарскими ополченцами.
Доп. информация: Видео взято отсюда (рип от dimmm2v) - , аудио взято с DVD-раздачи -
Роли озвучивали: den904, DeadSno, North.
Сэмпл: https://www.sendspace.com/file/hk84v4
Качество видео: DVDRip
Формат видео: AVI
Видео: 1463 Кбит/сек, 704x512 (1.38:1), 25 кадров/сек, XviD
Аудио: Русский, 384 Кбит/сек, 48,0 КГц, 2 канала, AC-3
Формат субтитров: softsub (SRT)

MediaInfo

ОбщееПолное имя                               : M:\MONAR.RU\Видео\Художественные фильмы\Под игом (1952) DVDRip\Под игом (1952).aviФормат                                   : AVIФормат/Информация                        : Audio Video InterleaveРазмер файла                             : 1,46 ГбайтПродолжительность                        : 1 ч. 52 м.Общий поток                              : 1858 Кбит/сек
ВидеоИдентификатор : 0Формат : MPEG-4 VisualПрофиль формата : Advanced Simple@L5Параметр BVOP формата : 1Параметр QPel формата : НетПараметр GMC формата : Без точки переходаПараметр матрицы формата : Default (MPEG)Идентификатор кодека : XVIDИдентификатор кодека/Подсказка : XviDПродолжительность : 1 ч. 52 м.Битрейт : 1464 Кбит/секШирина : 704 пикселяВысота : 512 пикселейСоотношение сторон : 1,375Частота кадров : 25,000 кадров/секЦветовое пространство : YUVСубдискретизация насыщенности : 4:2:0Битовая глубина : 8 битТип развёртки : ПрогрессивнаяМетод сжатия : С потерямиБит/(Пиксели*Кадры) : 0.162Размер потока : 1,15 Гбайт (79%)Библиотека кодирования : XviD 1.2.0.dev47 (UTC 2006-11-01)
АудиоИдентификатор : 1Формат : AC-3Формат/Информация : Audio Coding 3Расширение режима : CM (complete main)Параметр Endianness формата : BigИдентификатор кодека : 2000Продолжительность : 1 ч. 52 м.Продолжительность оригинала : 1 ч. 52 м.Вид битрейта : ПостоянныйБитрейт : 384 Кбит/секКаналы : 2 каналаРасположение каналов : Front: L RЧастота : 48,0 КГцБитовая глубина : 16 битМетод сжатия : С потерямиРазмер потока : 308 Мбайт (21%)Выравнивание : Соединение по промежуткамПродолжительность промежутка : 40 мс. (1,00 видеокадр)

Скриншот c названием фильма

Скриншоты

To download the content you need:
1. Download and install torrent client [for Windows] or for mobile system
2. Click on [Download]
Attention.
If the test YOU are NOT a ROBOT - does not work, then You are using an outdated browser.
Install the current browser and click on [Download]
Security: torrent client is allowed by Kaspersky.

[en.asmlocator.ru].t3947.torrent 
Torrent: Registered [ 2015-11-30 05:45 ] · 97AC806875529593F7FE72C0171EC3214F40E055

Download .torrent

Download

15 KB

Status: checked
Completed: 1 times
Size: 1.46 GB
terms.php
[Profile] [PM]
Display posts:    
Reply to topic

Current time is: 09-Dec 05:12

All times are UTC ± 0



You cannot post new topics in this forum
You cannot reply to topics in this forum
You cannot edit your posts in this forum
You cannot delete your posts in this forum
You cannot vote in polls in this forum
You cannot attach files in this forum
You can download files in this forum
Верим фактам, а не вранью Путина! Факт, что Правительство ведёт Россию к истреблению.
Так как численность населения падает, даже не смотря на приток эмигрантов!
Русская нация вымирает и вырождается, смешиваясь с эмигрантами!
Факт, что военных и граждан предприятий заставляют голосовать за партию Единая Россия и Путина
ПОД СТРАХОМ УВОЛЬНЕНИЯ!
Нам не нужно Правительство, блокирующее личную жизнь, интернет, нарушающее сохранность данных.
Все эти действия финансируются за счёт народа!