Де Сад / De Sade / Das ausschweifende Leben des Marquis de Sade (Сай Эндфилд / Cy Endfield, Роджер Корман / Roger Corman) [1969, ФРГ, США, драма, DVDRip] VO (den904)

Reply to topic
DL-List and Torrent activity
Size:  1.46 GB   |    Registered:  4 years   |    Completed:  0 times

Seeder not seen: Never

 
   
 
 
Author Message

star21 ®

Gender: Female

Longevity: 4 years 1 month

Posts: 551946

Location: Екатеринбург

Post 30-Nov-2015 05:48

[Quote]

Де Сад / De Sade / Das ausschweifende Leben des Marquis de Sade
Страна: ФРГ, США
Жанр: драма
Год выпуска: 1969
Продолжительность: 01:43:57
Перевод: Одноголосый закадровый - den904
Cубтитры: нет

Режиссер: Сай Эндфилд / Cy Endfield, Роджер Корман / Roger Corman
В ролях: Кир Дулли, Зента Бергер, Джон Хьюстон, Лилли Пальмер, Анна Мэсси, Соня Циманн, Кристиан Крюгер, Ута Левка, Барбара Станек, Сюзанна фон Алмасси, Фридрих Шёнфельдер, Герберт Вайсбах, Гейнц Шпитцнер, Тилли Лауенштайн, Ортруд Гросс
Описание: Правдивое резюме судьбы Луи Альфонса Донасьена, более известного как маркиз де Сад. Маркиз, находясь в заточении, вспоминает свое прошлое — как оно было в реальности и каким оно могло быть в воображаемых фэнтези-пьесах. На протяжении всей его жизни маркиза мучит призрак злодея-дяди, аббата де Сада. Воспитанный дядей с раннего возраста в духе сексуальной распущенности и жестокости, Луи по недоразумению женится на некрасивой, но преданной Рене де Монтрей, которую опекает её властная мать, полагая, что женится на её младшей, небесно красивой сестре Анне. Анна становится воплощением представлений маркиза о «моменте реальности» — навязчивой идее, которую он безуспешно пытается достичь на протяжении всей своей развратной жизни, игнорируя жену и компрометируя семью секс-скандалами с бессмысленными жестокостями. Периодически заключаемый под стражу и даже в тюрьму своими собственными родственниками, в конце концов он получает тяжкое обвинение в убийстве Анны, которая на самом деле умерла от чумы. Де Сад, став слабым старцем, который не может даже подняться с тюремной койки, всё еще не сломлен и ищет разгадку тайны своей жизни.
Качество видео:
Формат видео: AVI
Видео: 704x384 (1.83:1), 23.976 fps, XviD build 73 ~1803 kbps avg, 0.28 bit/pixel
Аудио: 48 kHz, AC3 Dolby Digital, 2/0 (L,R) ch, ~192 kbps

MediaInfo

Общее
Полное имя : H:\De.Sade.1969.dvdrip_[1.46]_[teko].avi
Формат : AVI
Формат/Информация : Audio Video Interleave
Размер файла : 1,46 Гбайт
Продолжительность : 1 ч. 43 м.
Общий поток : 2005 Кбит/сек
Программа кодирования : VirtualDubMod 1.5.10.3 | www.virtualdub-fr.org || (build 2550/release)
Библиотека кодирования : VirtualDubMod build 2550/release
Видео
Идентификатор : 0
Формат : MPEG-4 Visual
Профиль формата : Advanced Simple@L5
Параметр BVOP формата : 1
Параметр QPel формата : Нет
Параметр GMC формата : Без точки перехода
Параметр матрицы формата : Выборочная
Идентификатор кодека : XVID
Идентификатор кодека/Подсказка : XviD
Продолжительность : 1 ч. 43 м.
Битрейт : 1804 Кбит/сек
Ширина : 704 пикселя
Высота : 384 пикселя
Соотношение сторон : 1,85:1
Частота кадров : 23,976 кадра/сек
Цветовое пространство : YUV
Субдискретизация насыщенности : 4:2:0
Битовая глубина : 8 бит
Тип развёртки : Прогрессивная
Метод сжатия : С потерями
Бит/(Пиксели*Кадры) : 0.278
Размер потока : 1,31 Гбайт (90%)
Библиотека кодирования : XviD 73
Аудио
Идентификатор : 1
Формат : AC-3
Формат/Информация : Audio Coding 3
Расширение режима : CM (complete main)
Параметр Endianness формата : Big
Идентификатор кодека : 2000
Продолжительность : 1 ч. 43 м.
Вид битрейта : Постоянный
Битрейт : 192 Кбит/сек
Каналы : 2 канала
Расположение каналов : Front: L R
Частота : 48,0 КГц
Битовая глубина : 16 бит
Метод сжатия : С потерями
Размер потока : 143 Мбайт (10%)
Выравнивание : Разделение по промежуткам
Продолжительность промежутка : 42 мс. (1,00 видеокадр)
Время предзагрузки промежутка : 500 мс.

Скриншоты

Релиз группы:
-
-

To download the content you need:
1. Download and install torrent client [for Windows] or for mobile system
2. Click on [Download]
Attention.
If the test YOU are NOT a ROBOT - does not work, then You are using an outdated browser.
Install the current browser and click on [Download]
Security: torrent client is allowed by Kaspersky.

[en.asmlocator.ru].t3946.torrent 
Torrent: Registered [ 2015-11-30 05:45 ] · 884FF5EE69B19AF66B60D2A8963F75F6FEADF33F

Download .torrent

Download

15 KB

Status: checked
Completed: 0 times
Size: 1.46 GB
terms.php
[Profile] [PM]
Display posts:    
Reply to topic

Current time is: 14-Dec 00:57

All times are UTC ± 0



You cannot post new topics in this forum
You cannot reply to topics in this forum
You cannot edit your posts in this forum
You cannot delete your posts in this forum
You cannot vote in polls in this forum
You cannot attach files in this forum
You can download files in this forum
Верим фактам, а не вранью Путина! Факт, что Правительство ведёт Россию к истреблению.
Так как численность населения падает, даже не смотря на приток эмигрантов!
Русская нация вымирает и вырождается, смешиваясь с эмигрантами!
Факт, что военных и граждан предприятий заставляют голосовать за партию Единая Россия и Путина
ПОД СТРАХОМ УВОЛЬНЕНИЯ!
Нам не нужно Правительство, блокирующее личную жизнь, интернет, нарушающее сохранность данных.
Все эти действия финансируются за счёт народа!