Я люблю Мелвина / Я люблю Мэлвина / I Love Melvin (Дон Уайс / Don Weis) [1953, США, мюзикл, мелодрама, комедия, DVDRip] VO (Stalk) + Original Eng

Reply to topic
DL-List and Torrent activity
Size:  768 MB   |    Registered:  4 years   |    Completed:  0 times

Seeder not seen: Never

 
   
 
 
Author Message

star21 ®

Gender: Female

Longevity: 4 years 1 month

Posts: 551946

Location: Екатеринбург

Post 30-Nov-2015 05:48

[Quote]

Я люблю Мелвина / Я люблю Мэлвина / I Love Melvin
Страна: США
Жанр: мюзикл, мелодрама, комедия
Год выпуска: 1953
Продолжительность: 01:17:20
Перевод: Одноголосый закадровый - Stalk (Никита Кирдин)
Cубтитры: русские (только на песни)
Оригинальная аудиодорожка: английский
Режиссер: Дон Уайс / Don Weis
Композитор: Джордж Столл / George Stoll
В ролях: Дональд О’Коннор / Donald O'Connor ... Melvin Hoover
Дебби Рейнолдс / Debbie Reynolds ... Judy Schneider / Judy LeRoy
Уна Меркел / Una Merkel ... Mom Schneider
Ричард Андерсон / Richard Anderson ... Harry Flack
Эллин Джослин / Allyn Joslyn ... Frank Schneider
Лес Тремейн / Les Tremayne ... Mr. Henneman
Донна Коркоран / Noreen Corcoran ... Clarabelle Schneider
Джим Бакус / Jim Backus ... Mergo
Барбара Руик / Barbara Ruick ... Studio Guide
Роберт Тейлор / Robert Taylor ... играет самого себя, камео in Judy's Dream
Описание: Однажды в Центральном парке Мелвин Гувер, подающий надежды фотограф из журнала „Look“, случайно сталкивается с молодой актрисой Джуди Шнайдер. Он с первого взгляда влюбляется в неё и даже просит руки Джуди, но сталкивается с неодобрением её отца, который хочет, чтобы Джуди вышла замуж за Гарри Флэка, скучного наследника бумажной компании. Тогда Мелвин преувеличивает свою важность в журнале, чтобы произвести впечатление на Джуди и ее семью, и обещает, что фотография Джуди появится на обложке ближайшего выпуска журнала „Look“. Но, как говорится, проще сказать, чем сделать...--БОЛЬШОЕ СПАСИБО:
Работа со звуком и реавторинг DVD -
Перевод и озвучивание фильма, создание русских субтитров на песни - Stalk (Никита Кирдин)
Также Большое Спасибо всем, кто принял участие в появлении перевода к этому фильму:
Lafajet, Магда, jasenka, елена 22, yanaelisa, atomic dragonfly, cementit, voostorg, борюська, mumzik69, leoder, Simpun, keg38, surzhoks, sin58, Patsy+, neddgu
----Сэмпл: http://multi-up.com/1062882
Качество видео: DVDRip
Формат видео: AVI
Видео: XviD, 544x416 (4:3), 23.976 fps, 1123 Kbps
Аудио 1: MP3, 48.0 KHz, 2 ch., 128 Kbps (русский одноголосый закадровый перевод) - Stalk (Никита Кирдин)
Аудио 2: MP3, 48.0 KHz, 2 ch., 128 Kbps (оригинальная английская звуковая дорожка, лежит отдельно)
(см. "Программы для работы с контейнерами" - > "VirtualDub" или "AVI-Mux")

MediaInfo

AVI-файл:
Общее
Полное имя : K:\раздачи\I Love Melvin 1953 700MB\I Love Melvin.avi
Формат : AVI
Формат/Информация : Audio Video Interleave
Размер файла : 697 Мбайт
Продолжительность : 1 ч. 17 м.
Общий поток : 1260 Кбит/сек
Программа кодирования : VirtualDubMod 1.5.10.3 | www.virtualdub-fr.org || (build 2550/release)
Библиотека кодирования : VirtualDubMod build 2550/release
Видео
Идентификатор : 0
Формат : MPEG-4 Visual
Профиль формата : Advanced Simple@L5
Параметр BVOP формата : 2
Параметр QPel формата : Нет
Параметр GMC формата : Без точки перехода
Параметр матрицы формата : Default (H.263)
Идентификатор кодека : DX50
Идентификатор кодека/Подсказка : DivX 5
Продолжительность : 1 ч. 17 м.
Битрейт : 1123 Кбит/сек
Ширина : 544 пикселя
Высота : 416 пикселей
Соотношение сторон : 4:3
Частота кадров : 23,976 кадра/сек
Цветовое пространство : YUV
Субдискретизация насыщенности : 4:2:0
Битовая глубина : 8 бит
Тип развёртки : Прогрессивная
Метод сжатия : С потерями
Бит/(Пиксели*Кадры) : 0.207
Размер потока : 621 Мбайт (89%)
Библиотека кодирования : XviD 73
Аудио
Идентификатор : 1
Формат : MPEG Audio
Версия формата : Version 1
Профиль формата : Layer 3
Идентификатор кодека : 55
Идентификатор кодека/Подсказка : MP3
Продолжительность : 1 ч. 17 м.
Вид битрейта : Постоянный
Битрейт : 128 Кбит/сек
Каналы : 2 канала
Частота : 48,0 КГц
Метод сжатия : С потерями
Размер потока : 70,8 Мбайт (10%)
Выравнивание : Соединение по промежуткам
Продолжительность промежутка : 42 мс. (1,00 видеокадр)
Время предзагрузки промежутка : 504 мс.
Библиотека кодирования : LAME3.99r
Настройки программы : -m s -V 4 -q 0 -lowpass 17 -b 128
английская оригинальная звуковая дорожка, лежит отдельно:
Общее
Полное имя : K:\раздачи\I Love Melvin 1953 700MB\I Love Melvin.ENG.mp3
Формат : MPEG Audio
Размер файла : 70,8 Мбайт
Продолжительность : 1 ч. 17 м.
Режим общего битрейта : Постоянный
Общий поток : 128 Кбит/сек
Библиотека кодирования : LAME3.99r
Аудио
Формат : MPEG Audio
Версия формата : Version 1
Профиль формата : Layer 3
Продолжительность : 1 ч. 17 м.
Вид битрейта : Постоянный
Битрейт : 128 Кбит/сек
Каналы : 2 канала
Частота : 48,0 КГц
Метод сжатия : С потерями
Размер потока : 70,8 Мбайт (100%)
Библиотека кодирования : LAME3.99r
Настройки программы : -m s -V 4 -q 0 -lowpass 17 -b 128

Исходник

To download the content you need:
1. Download and install torrent client [for Windows] or for mobile system
2. Click on [Download]
Attention.
If the test YOU are NOT a ROBOT - does not work, then You are using an outdated browser.
Install the current browser and click on [Download]
Security: torrent client is allowed by Kaspersky.

[en.asmlocator.ru].t3945.torrent 
Torrent: Registered [ 2015-11-30 05:45 ] · 9505667EB90022374EB9D09C5A90221B37264488

Download .torrent

Download

16 KB

Status: checked
Completed: 0 times
Size: 768 MB
terms.php
[Profile] [PM]
Display posts:    
Reply to topic

Current time is: 14-Dec 20:30

All times are UTC ± 0



You cannot post new topics in this forum
You cannot reply to topics in this forum
You cannot edit your posts in this forum
You cannot delete your posts in this forum
You cannot vote in polls in this forum
You cannot attach files in this forum
You can download files in this forum
Верим фактам, а не вранью Путина! Факт, что Правительство ведёт Россию к истреблению.
Так как численность населения падает, даже не смотря на приток эмигрантов!
Русская нация вымирает и вырождается, смешиваясь с эмигрантами!
Факт, что военных и граждан предприятий заставляют голосовать за партию Единая Россия и Путина
ПОД СТРАХОМ УВОЛЬНЕНИЯ!
Нам не нужно Правительство, блокирующее личную жизнь, интернет, нарушающее сохранность данных.
Все эти действия финансируются за счёт народа!