Самый крупный куш / Самая большая добыча / The Biggest Bundle of Them All (Кен Эннакин / Ken Annakin) [1968, США, комедия, криминал, DVDRip] MVO (5 канал) + Original Eng

Reply to topic
DL-List and Torrent activity
Size:  1.45 GB   |    Registered:  4 years 7 months   |    Completed:  0 times

Seeder not seen: 2 years

 
   
 
 
Author Message

star21 ®

Gender: Female

Longevity: 4 years 8 months

Posts: 551945

Location: Екатеринбург

Post 30-Nov-2015 05:48

[Quote]

Самый крупный куш / Самая большая добыча / The Biggest Bundle of Them All
Страна: США
Жанр: комедия, криминал
Год выпуска: 1968
Продолжительность: 01:48:02
Перевод: Профессиональный (многоголосый закадровый) Петербург 5 канал
Cубтитры: нет
Оригинальная аудиодорожка: английский
Режиссер: Кен Эннакин / Ken Annakin
В ролях: Витторио Де Сика, Рэкел Уэлч, Роберт Вагнер, Годфри Кэмбридж, Дави Кэй, Франческо Мулэ, Эдвард Дж. Робинсон, Виктор Спинетти, Ивонн Сансон, Микки Нокс
Описание: Банда новичков-преступников похищает в Италии знаменитого американского гангстера Чезаре Челли. Главарь дилетантов Гарри Прайс требует выкуп в размере пяти миллионов долларов, уверенный, что криминальные авторитеты готовы заплатить даже больше за освобождение своего старого товарища.
Однако те не спешат собирать деньги, и раздосадованному похитителю приходится выдумывать новый план, чтобы хотя бы покрыть бессмысленные затраты.
Гарри решает украсть огромный груз платины, но тут к нему начинает приставать со своими советами сам Чезаре Челли. В конце концов, у него в таких делах куда больше опыта!
Доп. информация:
Озвучка из этой раздачи
Сравнение скриншотов http://screenshotcomparison.com/comparison/138920/picture:0
Сэмпл: http://sendfile.su/1146677
Качество видео: DVDRip
Формат видео: AVI
Видео: 720x304 (2.37:1), 23.976 fps, DivX Codec 6.8.5/6.9.1 ~1524 kbps avg, 0.29 bit/pixel
Аудио: 48 kHz, AC3 Dolby Digital, 2/0 (L,R) ch, ~192 kbps
Аудио 2: 48 kHz, AC3 Dolby Digital, 2/0 (L,R) ch, ~192 kbps

MediaInfo

Формат : AVI
Формат/Информация : Audio Video Interleave
Размер файла : 1,45 Гбайт
Продолжительность : 1 ч. 48 м.
Общий поток : 1923 Кбит/сек
Программа кодирования : VirtualDubMod 1.5.10.3 || (build 2550/release)
Библиотека кодирования : VirtualDubMod build 2550/release
Видео
Идентификатор : 0
Формат : MPEG-4 Visual
Параметр BVOP формата : Да
Параметр QPel формата : Нет
Параметр GMC формата : Без точки перехода
Параметр матрицы формата : Default (H.263)
Идентификатор кодека : DX50
Идентификатор кодека/Подсказка : DivX 5
Продолжительность : 1 ч. 48 м.
Битрейт : 1525 Кбит/сек
Ширина : 720 пикселей
Высота : 304 пикселя
Соотношение сторон : 2,35:1
Частота кадров : 23,976 кадра/сек
Цветовое пространство : YUV
Субдискретизация насыщенности : 4:2:0
Битовая глубина : 8 бит
Тип развёртки : Прогрессивная
Метод сжатия : С потерями
Бит/(Пиксели*Кадры) : 0.291
Размер потока : 1,15 Гбайт (79%)
Библиотека кодирования : DivX 6.8.5 (UTC 2009-08-20)
Аудио #1
Идентификатор : 1
Формат : AC-3
Формат/Информация : Audio Coding 3
Расширение режима : CM (complete main)
Идентификатор кодека : 2000
Продолжительность : 1 ч. 48 м.
Вид битрейта : Постоянный
Битрейт : 192 Кбит/сек
Каналы : 2 канала
Расположение каналов : Front: L R
Частота : 48,0 КГц
Битовая глубина : 16 бит
Метод сжатия : С потерями
Размер потока : 148 Мбайт (10%)
Выравнивание : Разделение по промежуткам
Продолжительность промежутка : 42 мс. (1,00 видеокадр)
Время предзагрузки промежутка : 500 мс.
Аудио #2
Идентификатор : 2
Формат : AC-3
Формат/Информация : Audio Coding 3
Расширение режима : CM (complete main)
Идентификатор кодека : 2000
Продолжительность : 1 ч. 48 м.
Вид битрейта : Постоянный
Битрейт : 192 Кбит/сек
Каналы : 2 канала
Расположение каналов : Front: L R
Частота : 48,0 КГц
Битовая глубина : 16 бит
Метод сжатия : С потерями
Размер потока : 148 Мбайт (10%)
Выравнивание : Соединение по промежуткам
Продолжительность промежутка : 42 мс. (1,00 видеокадр)
Время предзагрузки промежутка : 512 мс.

Скриншоты

To download the content you need:
1. Download and install torrent client [for Windows] or for mobile system
2. Click on [Download]
Attention.
If the test YOU are NOT a ROBOT - does not work, then You are using an outdated browser.
Install the current browser and click on [Download]

Do not work with Yandex browser. Uploading files to them is erroneous.
Security: torrent client is allowed by Kaspersky.

[en.asmlocator.ru].t3944.torrent 
Torrent: Registered [ 2015-11-30 05:45 ] · BF784842DA89C0EB5E008A6C594305D3BD9A5534

Download .torrent

Download

30 KB

Status: checked
Completed: 0 times
Size: 1.45 GB
terms.php
[Profile] [PM]
Display posts:    
Reply to topic

Current time is: 13-Jul 01:08

All times are UTC ± 0



You cannot post new topics in this forum
You cannot reply to topics in this forum
You cannot edit your posts in this forum
You cannot delete your posts in this forum
You cannot vote in polls in this forum
You cannot attach files in this forum
You can download files in this forum
Верим фактам, а не вранью Путина! Факт, что Правительство ведёт Россию к истреблению.
Так как численность населения падает, даже не смотря на приток эмигрантов!
Русская нация вымирает и вырождается, смешиваясь с эмигрантами!
Факт, что военных и граждан предприятий заставляют голосовать за партию Единая Россия и Путина
ПОД СТРАХОМ УВОЛЬНЕНИЯ!
Нам не нужно Правительство, блокирующее личную жизнь, интернет, нарушающее сохранность данных.
Все эти действия финансируются за счёт народа!