Железный Крест / Cross of Iron (Сэм Пекинпа / Sam Peckinpah) [1977, Великобритания, Германия, боевик, драма, военный, BDRip] DVO (Екатеринбург Арт)

Reply to topic
DL-List and Torrent activity
Size:  1.46 GB   |    Registered:  4 years   |    Completed:  0 times

Seeder not seen: Never

 
   
 
 
Author Message

star21 ®

Gender: Female

Longevity: 4 years 1 month

Posts: 551946

Location: Екатеринбург

Post 30-Nov-2015 05:48

[Quote]

Железный Крест / Cross of Iron-Культовый фильм Сэма Пекинпы.
Сборы в кинотеатрах Германии - 14 000 000 долларов.
"ЗОЛОТАЯ СЕРИЯ"
- Год выпуска: 1977
Страна: Великобритания, Германия
Жанр: боевик, драма, военный
Продолжительность: 02:12:41
Перевод: Профессиональный (двухголосый закадровый) - Екатеринбург Арт
Cубтитры: нет
Режиссер: Сэм Пекинпа / Sam Peckinpah
В ролях: Джеймс Коберн (Unteroffizier Feldwebel (S / Sgt.), Rolf Steiner), Максимилиан Шелл (Hauptmann (Capt.), Stransky), Джеймс Мейсон (Oberst (Col.), Brandt), Дэвид Уорнер (Hauptmann (Capt.), Kiesel), Клаус Лёвич (Unteroffizier (Cpl.), Krüger), Вадим Гловна (Gefreiter (Pvt.), Kern), Рогер Фриц (Leutnant (Lt.), Triebig), Дитер Шидор (Anselm), Буркхард Дрист (Schütze Maag), Фред Штилькраут (Unteroffizier (Cpl.), Schnurrbart ('Private Mustache'))-Мировая премьера: 28 января 1977-Описание: 1943 год. Немецкая армия с тяжелыми боями отступает на Восточном фронте. На замену убитому командиру батальона прибывает переведенный из Франции капитан Странский. Этот элегантный прусский аристократ еще не бывал в настоящем сражении и мечтает любой ценой получить германский боевой орден — «Железный крест». Чтобы достичь своей цели, Странскому нужно завоевать уважение командира взвода капрала Штайнера, закаленного в боях ветерана, пользующегося огромным авторитетом среди товарищей по оружию. А «универсальный солдат» Штайнер презирает офицеров, жаждущих славы, но предпочитающих не соваться на передовую…-Благодарности:
- .
- собственная оцифровка перевода со своей лицензионной видеокассеты от видео-компании Екатеринбург Арт.
- синхронизация перевода.-Данный перевод на трекере появляется впервые.
На русский язык фильм озвучен по заказу компании Екатеринбург Арт.
Текст читают Виктор Бохон и Наталья Гурзо.-Рейтинг

MPAA: R - Лицам до 17 лет обязательно присутствие взрослого.-Качество видео: BDRip
Формат видео: AVI -> //SAMPLE//
Видео: XviD, 688x368 (1,85:1), 24.000 fps, 1372 kbps avg
Аудио:
1 - 48 khz, AC3 Dolby Digital, 2/0 (L,R) ch, ~192 kbps [Екатеринбург Арт] VHSRip

MediaInfo

General
Complete name : E:\Торрент Файлы\Будущие Релизы на Трекере\1.35 - 1.46 и более гб\Железный Крест (Екатеринбург Арт).avi
Format : AVI
Format/Info : Audio Video Interleave
File size : 1.46 GiB
Duration : 2h 12mn
Overall bit rate : 1 573 Kbps
Writing application : VirtualDubMod 1.5.10.3 | www.virtualdub-fr.org || (build 2550/release)
Writing library : VirtualDubMod build 2550/release
Video
ID : 0
Format : MPEG-4 Visual
Format profile : Advanced Simple@L5
Format settings, BVOP : 1
Format settings, QPel : No
Format settings, GMC : No warppoints
Format settings, Matrix : Custom
Codec ID : XVID
Codec ID/Hint : XviD
Duration : 2h 12mn
Bit rate : 1 372 Kbps
Width : 688 pixels
Height : 368 pixels
Display aspect ratio : 1.85:1
Frame rate : 24.000 fps
Color space : YUV
Chroma subsampling : 4:2:0
Bit depth : 8 bits
Scan type : Progressive
Compression mode : Lossy
Bits/(Pixel*Frame) : 0.226
Stream size : 1.27 GiB (87%)
Writing library : XviD 63
Audio
ID : 1
Format : AC-3
Format/Info : Audio Coding 3
Mode extension : CM (complete main)
Format settings, Endianness : Big
Codec ID : 2000
Duration : 2h 12mn
Bit rate mode : Constant
Bit rate : 192 Kbps
Channel(s) : 2 channels
Channel positions : Front: L R
Sampling rate : 48.0 KHz
Compression mode : Lossy
Stream size : 182 MiB (12%)
Alignment : Split accross interleaves
Interleave, duration : 42 ms (1.00 video frame)
Interleave, preload duratio : 500 ms

Скриншот c названием фильма

Скриншоты

To download the content you need:
1. Download and install torrent client [for Windows] or for mobile system
2. Click on [Download]
Attention.
If the test YOU are NOT a ROBOT - does not work, then You are using an outdated browser.
Install the current browser and click on [Download]
Security: torrent client is allowed by Kaspersky.

[en.asmlocator.ru].t3941.torrent 
Torrent: Registered [ 2015-11-30 05:45 ] · 2A34D38A4D25810565806AC7EEC3E2E388E27E89

Download .torrent

Download

15 KB

Status: checked
Completed: 0 times
Size: 1.46 GB
terms.php
[Profile] [PM]
Display posts:    
Reply to topic

Current time is: 14-Dec 22:24

All times are UTC ± 0



You cannot post new topics in this forum
You cannot reply to topics in this forum
You cannot edit your posts in this forum
You cannot delete your posts in this forum
You cannot vote in polls in this forum
You cannot attach files in this forum
You can download files in this forum
Верим фактам, а не вранью Путина! Факт, что Правительство ведёт Россию к истреблению.
Так как численность населения падает, даже не смотря на приток эмигрантов!
Русская нация вымирает и вырождается, смешиваясь с эмигрантами!
Факт, что военных и граждан предприятий заставляют голосовать за партию Единая Россия и Путина
ПОД СТРАХОМ УВОЛЬНЕНИЯ!
Нам не нужно Правительство, блокирующее личную жизнь, интернет, нарушающее сохранность данных.
Все эти действия финансируются за счёт народа!