Малыш / The Baby (Тед Пост / Ted Post) [1973, США, ужасы, драма, DVDRip] DVO (den904+DeadSno)

Reply to topic
DL-List and Torrent activity
Size:  1.37 GB   |    Registered:  4 years   |    Completed:  0 times

Seeder not seen: Never

 
   
 
 
Author Message

star21 ®

Gender: Female

Longevity: 4 years 1 month

Posts: 551946

Location: Екатеринбург

Post 30-Nov-2015 05:48

[Quote]

Малыш / The Baby
Страна: США
Жанр: ужасы, драма
Год выпуска: 1973
Продолжительность: 01:24:59
Перевод: Любительский (двухголосый закадровый) den904+DeadSno
Cубтитры: нет
Режиссер: Тед Пост / Ted Post
В ролях: Майкл Патаки, Эрин О’Рейли, Анжанетт Комер, Беатрис Мэнли, Джозеф Бернард, Вирджиния Винсент, Марианна Хилл, Сюзанна Зенор, Рут Роман, Дэвид Муни
Описание: Сотрудницу социальной службы Энн Гентри отправляют в одну семью, чтобы расследовать исчезновения служащих, которых компания ранее посылала к ним. Вдова, миссис Уодсворт и две ее дочери, Жермен и Альба, живут под одной крышей с загадочным ребенком, Малышом. Это 23-летнее существо, которое все еще сидит в детской кроватке, не может ходить и говорить, а только кричит. Малыш ползает по всему дому в пеленках и пьёт молоко из бутылки. У Энн складывается впечатление, что семья даже не стремится улучшить состояние умственно отсталого Малыша. Энн видит потенциал Малыша, разговаривает с ним, учит его чему-то и хочет отправить в клинику, но семья категорически отказывается от этого предложения…
Доп. информация: Перевод взят из раздачи roma19981998 (ЕХ)
Релиз
Сэмпл: https://yadi.sk/i/yPbc0XBqiYPta
Качество видео: DVDRip [исходник DVD5]
Формат видео: AVI
Видео: 720x400 (1.80:1), 23.976 fps, XviD build 50 ~2101 kbps avg, 0.30 bit/pixel
Аудио: 48 kHz, AC3 Dolby Digital, 2/0 (L,R) ch, ~192 kbps

MediaInfo

Малыш - Baby (by Edich2).avi
Format : AVI
Format/Info : Audio Video Interleave
File size : 1.37 GiB
Duration : 1h 24mn
Overall bit rate : 2 303 Kbps
Movie name : Малыш - Baby (by Edich2)
Director : by Edich2
Writing application : VirtualDubMod 1.5.10.2 (build 2540/release)
Comment : RUTracker.org
Video
ID : 0
Format : MPEG-4 Visual
Format profile : Advanced Simple@L5
Format settings, BVOP : 1
Format settings, QPel : No
Format settings, GMC : No warppoints
Format settings, Matrix : Default (MPEG)
Codec ID : XVID
Codec ID/Hint : XviD
Duration : 1h 24mn
Bit rate : 2 102 Kbps
Width : 720 pixels
Height : 400 pixels
Display aspect ratio : 16:9
Frame rate : 23.976 fps
Color space : YUV
Chroma subsampling : 4:2:0
Bit depth : 8 bits
Scan type : Progressive
Compression mode : Lossy
Bits/(Pixel*Frame) : 0.304
Stream size : 1.25 GiB (91%)
Writing library : XviD 1.2.1 (UTC 2008-12-04)
Audio
ID : 1
Format : AC-3
Format/Info : Audio Coding 3
Mode extension : CM (complete main)
Format settings, Endianness : Big
Codec ID : 2000
Duration : 1h 24mn
Bit rate mode : Constant
Bit rate : 192 Kbps
Channel(s) : 2 channels
Channel positions : Front: L R
Sampling rate : 48.0 KHz
Bit depth : 16 bits
Compression mode : Lossy
Stream size : 117 MiB (8%)
Alignment : Split accross interleaves
Interleave, duration : 42 ms (1.00 video frame)
Interleave, preload duration : 500 ms

Скриншоты


To download the content you need:
1. Download and install torrent client [for Windows] or for mobile system
2. Click on [Download]
Attention.
If the test YOU are NOT a ROBOT - does not work, then You are using an outdated browser.
Install the current browser and click on [Download]
Security: torrent client is allowed by Kaspersky.

[en.asmlocator.ru].t3938.torrent 
Torrent: Registered [ 2015-11-30 05:45 ] · 823B7E2268FF5F5EE9FDE67FB9FBEF4338AC3CD6

Download .torrent

Download

14 KB

Status: checked
Completed: 0 times
Size: 1.37 GB
terms.php
[Profile] [PM]
Display posts:    
Reply to topic

Current time is: 05-Dec 14:47

All times are UTC ± 0



You cannot post new topics in this forum
You cannot reply to topics in this forum
You cannot edit your posts in this forum
You cannot delete your posts in this forum
You cannot vote in polls in this forum
You cannot attach files in this forum
You can download files in this forum
Верим фактам, а не вранью Путина! Факт, что Правительство ведёт Россию к истреблению.
Так как численность населения падает, даже не смотря на приток эмигрантов!
Русская нация вымирает и вырождается, смешиваясь с эмигрантами!
Факт, что военных и граждан предприятий заставляют голосовать за партию Единая Россия и Путина
ПОД СТРАХОМ УВОЛЬНЕНИЯ!
Нам не нужно Правительство, блокирующее личную жизнь, интернет, нарушающее сохранность данных.
Все эти действия финансируются за счёт народа!