[SACD-R][OF] Charles Aznavour - La Boheme - 1966/2004 (Pop, Vocal, French Chanson)

Reply to topic
DL-List and Torrent activity
Size:  3.59 GB   |    Registered:  2 years 8 months   |    Completed:  1 time

Seeder not seen: 18 minutes

 
   
 
 
Author Message

star21 ®

Gender: Female

Longevity: 4 years 6 months

Posts: 551945

Location: Екатеринбург

Post 28-Sep-2017 21:50

[Quote]

Charles Aznavour / La Bohème Формат записи/Источник записи: [SACD-R][OF]
Наличие водяных знаков: Нет
Год издания/переиздания диска: 1966/2004
Жанр: Pop, Vocal, French Chanson
Издатель(лейбл): EMI (France)
Продолжительность: 00:52:18
Наличие сканов в содержимом раздачи: НетТреклист:
1. La bohème
2. Aime-moi
3. Quelque chose ou quelqu'un
4. Ca vient sans qu'on y pense
5. Plus rien
6. Il viendra ce jour
7. Paris au mois d'août
8. Sur le chemin du retour
9. Il fallait bien
10. Parce que tu crois
11. La route
12. Sarah
13. Je t'aime comme ça
14. Ay ! Mourir pour toi
15. L'amour à fleur de coeur
16. C'est merveilleux l'amour
17. Jezebel
18. A propos du pommierКонтейнер: ISO (*.iso)
Тип рипа: image
Разрядность: 64(2,8 MHz/1 Bit)
Формат: DST64
Количество каналов: 5.1, 2.0Доп. информация: 5774722
Источник (релизер): grillbrilll (PS³SACD`s forum)
http://sa-cd.net/showtitle/2080

DR 12/11

foobar2000 1.3.8 / Замер динамического диапазона (DR) 1.1.1
Дата отчёта: 2016-02-21 17:22:01--------------------------------------------------------------------------------
Анализ: Charles Aznavour / LA BOHEME
--------------------------------------------------------------------------------DR Пики RMS Продолжительность трека
--------------------------------------------------------------------------------
DR11 -3.72 дБ -19.40 дБ 4:04 01-La boheme
DR12 -3.80 дБ -19.66 дБ 2:35 02-Aime moi
DR11 -5.41 дБ -20.55 дБ 2:35 03-Quelque chose ou quelqu'un
DR12 -5.95 дБ -21.35 дБ 3:14 04-Ca vient sans qu'on y pense
DR11 -4.95 дБ -19.98 дБ 2:41 05-Plus rien
DR12 -6.01 дБ -21.96 дБ 2:13 06-Il viendra ce jour
DR11 -3.18 дБ -18.11 дБ 3:23 07-Paris au mois d'Août
DR12 -2.98 дБ -19.21 дБ 2:23 08-Sur le chemin du retour
DR11 -4.66 дБ -19.69 дБ 2:16 09-Il fallait bien
DR13 -4.50 дБ -20.93 дБ 3:09 10-Parce que tu crois
DR13 -4.08 дБ -20.72 дБ 2:53 11-La route
DR11 -4.34 дБ -19.29 дБ 2:11 12-Sarah
DR13 -2.96 дБ -21.76 дБ 2:30 13-Je t'aime comme ca
DR13 -3.06 дБ -23.15 дБ 3:40 14-Ay mourir pour toi
DR12 -3.17 дБ -22.26 дБ 3:46 15-L'amour a fleur de coeur
DR12 -3.35 дБ -21.14 дБ 2:10 16-C'est merveilleux l'amour
DR11 -2.70 дБ -20.18 дБ 2:35 17-Jezebel
DR16 -3.03 дБ -22.88 дБ 3:08 18-A propos de pommier
--------------------------------------------------------------------------------Количество треков: 18
Реальные значения DR: DR12Частота: 2822400 Гц / Частота PCM: 88200 Гц
Каналов: 6
Разрядность: 24
Битрейт: 16934 кбит/с
Кодек: DST64
================================================================================--------------------------------------------------------------------------------
Анализ: Charles Aznavour / LA BOHEME
--------------------------------------------------------------------------------DR Пики RMS Продолжительность трека
--------------------------------------------------------------------------------
DR11 -2.97 дБ -16.32 дБ 4:05 01-La boheme
DR11 -3.62 дБ -16.14 дБ 2:35 02-Aime moi
DR10 -4.70 дБ -16.53 дБ 2:35 03-Quelque chose ou quelqu'un
DR10 -3.98 дБ -16.41 дБ 3:14 04-Ca vient sans qu'on y pense
DR10 -3.28 дБ -15.08 дБ 2:42 05-Plus rien
DR10 -4.35 дБ -16.37 дБ 2:14 06-Il viendra ce jour
DR8 -3.73 дБ -14.22 дБ 3:24 07-Paris au mois d'Août
DR10 -3.13 дБ -15.50 дБ 2:22 08-Sur le chemin du retour
DR9 -4.18 дБ -15.16 дБ 2:17 09-Il fallait bien
DR11 -3.69 дБ -16.97 дБ 3:09 10-Parce que tu crois
DR12 -3.62 дБ -17.27 дБ 2:53 11-La route
DR10 -3.56 дБ -16.19 дБ 2:11 12-Sarah
DR11 -3.16 дБ -17.14 дБ 2:30 13-Je t'aime comme ca
DR12 -3.61 дБ -18.57 дБ 3:40 14-Ay mourir pour toi
DR11 -3.55 дБ -17.93 дБ 3:46 15-L'amour a fleur de coeur
DR11 -3.46 дБ -16.85 дБ 2:09 16-C'est merveilleux l'amour
DR9 -4.33 дБ -16.60 дБ 2:35 17-Jezebel
DR14 -3.80 дБ -19.18 дБ 3:08 18-A propos de pommier
--------------------------------------------------------------------------------Количество треков: 18
Реальные значения DR: DR11Частота: 2822400 Гц / Частота PCM: 88200 Гц
Каналов: 2
Разрядность: 24
Битрейт: 5645 кбит/с
Кодек: DST64
================================================================================

To download the content you need:
1. Download and install torrent client [for Windows] or for mobile system
2. Click on [Download]
Attention.
If the test YOU are NOT a ROBOT - does not work, then You are using an outdated browser.
Install the current browser and click on [Download]

Do not work with Yandex browser. Uploading files to them is erroneous.
Security: torrent client is allowed by Kaspersky.

[en.asmlocator.ru].t393587.torrent 
Torrent: Registered [ 2017-09-28 21:50 ] · C5AD18E1875AF5F210C40DDC40D1607CD67003E6

Download .torrent

Download

19 KB

Status: checked
Completed: 1 times
Size: 3.59 GB
terms.php
[Profile] [PM]
Display posts:    
Reply to topic

Current time is: 31-May 13:33

All times are UTC ± 0



You cannot post new topics in this forum
You cannot reply to topics in this forum
You cannot edit your posts in this forum
You cannot delete your posts in this forum
You cannot vote in polls in this forum
You cannot attach files in this forum
You can download files in this forum
Верим фактам, а не вранью Путина! Факт, что Правительство ведёт Россию к истреблению.
Так как численность населения падает, даже не смотря на приток эмигрантов!
Русская нация вымирает и вырождается, смешиваясь с эмигрантами!
Факт, что военных и граждан предприятий заставляют голосовать за партию Единая Россия и Путина
ПОД СТРАХОМ УВОЛЬНЕНИЯ!
Нам не нужно Правительство, блокирующее личную жизнь, интернет, нарушающее сохранность данных.
Все эти действия финансируются за счёт народа!