[SACD-R][OF] Dana Winner - Unforgettable - 2001 (Pop, Pop-Rock, Vocal)

Reply to topic
DL-List and Torrent activity
Size:  4.17 GB   |    Registered:  2 years 8 months   |    Completed:  0 times

Seeder not seen: 12 minutes

 
   
 
 
Author Message

star21 ®

Gender: Female

Longevity: 4 years 6 months

Posts: 551945

Location: Екатеринбург

Post 28-Sep-2017 21:50

[Quote]

Dana Winner / Unforgettable Формат записи/Источник записи: [SACD-R][OF]
Наличие водяных знаков: Нет
Год издания/переиздания диска: 2001
Жанр: Pop, Pop-Rock, Vocal
Издатель(лейбл): EMI Music Belgium
Продолжительность: 1:03:17
Наличие сканов в содержимом раздачи: Да (сканы)Треклист:
01 - Moonlight Shadow (4:26)
02 - I'll Always Be There (4:33)
03 - Woman in Love (4:15)
04 - Let Your Love Flow (3:33)
05 - Never Never Never / Grande Grande Grande (3:43)
06 - Vincent (4:20)
07 - Nothing's Gonna Change My Love For You (4:08)
08 - Something's Gotten Hold Of My Heart (4:33)
09 - You Needed Me (4:00)
10 - Morning Has Broken (3:19)
11 - Snowbird (2:53)
12 - Just When I Needed You Most (4:19)
13 - The Winner Takes It All (4:42)
14 - Leaving On A Jet Plane (4:33)
15 - Old And Wise (4:56)Контейнер: ISO (*.iso)
Тип рипа: imageРазрядность: 64(2,8 MHz/1 Bit)
Формат: DST64
Количество каналов: 5.1, 2.0

Official DR value: DR10 / DR8

foobar2000 1.3.10 / Dynamic Range Meter 1.1.1log date: 2016-06-12 16:41:16--------------------------------------------------------------------------------Analyzed: Dana Winner / Unforgettable--------------------------------------------------------------------------------DR         Peak         RMS     Duration Track--------------------------------------------------------------------------------DR9        0.00 dB   -13.12 dB      4:27 01-Moonlight ShadowDR9        0.00 dB   -12.82 dB      4:33 02-I'll Always Be ThereDR9        0.00 dB   -12.83 dB      5:03 03-Woman in LoveDR10       0.00 dB   -12.27 dB      3:32 04-Let Your Love FlowDR12      -0.80 dB   -15.72 dB      3:45 05-Never Never Never / Grande Grande GrandeDR11       0.00 dB   -19.90 dB      4:22 06-VincentDR9        0.00 dB   -13.20 dB      4:12 07-Nothing's Gonna Change My Love For YouDR9        0.00 dB   -12.76 dB      4:32 08-Something's Gotten Hold Of My HeartDR12       0.00 dB   -16.29 dB      4:00 09-You Needed MeDR10       0.00 dB   -17.55 dB      3:19 10-Morning Has BrokenDR10       0.00 dB   -15.68 dB      2:54 11-SnowbirdDR10       0.00 dB   -15.22 dB      4:20 12-Just When I Needed You MostDR10       0.00 dB   -13.64 dB      4:48 13-The Winner Takes It AllDR14       0.00 dB   -18.62 dB      4:33 14-Leaving On A Jet PlaneDR10       0.00 dB   -14.36 dB      4:56 15-Old And Wise--------------------------------------------------------------------------------Number of tracks:  15Official DR value: DR10Samplerate:        2822400 Hz / PCM Samplerate: 88200 HzChannels:          6Bits per sample:   24Bitrate:           16934 kbpsCodec:             DST64================================================================================--------------------------------------------------------------------------------Analyzed: Dana Winner / Unforgettable--------------------------------------------------------------------------------DR         Peak         RMS     Duration Track--------------------------------------------------------------------------------DR8        0.00 dB   -10.98 dB      4:26 01-Moonlight ShadowDR7        0.00 dB   -10.54 dB      4:33 02-I'll Always Be ThereDR7        0.00 dB   -10.32 dB      4:15 03-Woman in LoveDR8        0.00 dB   -10.02 dB      3:33 04-Let Your Love FlowDR7       -1.94 dB   -11.89 dB      3:43 05-Never Never Never / Grande Grande GrandeDR11      -0.07 dB   -14.03 dB      4:20 06-VincentDR7       -0.43 dB   -10.19 dB      4:08 07-Nothing's Gonna Change My Love For YouDR8        0.00 dB   -10.07 dB      4:33 08-Something's Gotten Hold Of My HeartDR8       -0.10 dB   -12.58 dB      4:00 09-You Needed MeDR9       -1.17 dB   -13.54 dB      3:19 10-Morning Has BrokenDR8       -0.65 dB   -11.81 dB      2:53 11-SnowbirdDR8       -1.39 dB   -12.58 dB      4:19 12-Just When I Needed You MostDR9        0.00 dB   -12.29 dB      4:42 13-The Winner Takes It AllDR10      -0.37 dB   -14.59 dB      4:33 14-Leaving On A Jet PlaneDR8        0.00 dB   -11.24 dB      4:56 15-Old And Wise--------------------------------------------------------------------------------Number of tracks:  15Official DR value: DR8Samplerate:        2822400 Hz / PCM Samplerate: 88200 HzChannels:          2Bits per sample:   24Bitrate:           5645 kbpsCodec:             DST64================================================================================

Спектр частот

Об альбоме (сборнике)

Produced by: Wilfried Van Baelen & Tom Salísbury
Engineered & Mixed by: Wilfried Van Baelen
Mastering: René Schardt
Источник (релизер): sa-cd.net

To download the content you need:
1. Download and install torrent client [for Windows] or for mobile system
2. Click on [Download]
Attention.
If the test YOU are NOT a ROBOT - does not work, then You are using an outdated browser.
Install the current browser and click on [Download]

Do not work with Yandex browser. Uploading files to them is erroneous.
Security: torrent client is allowed by Kaspersky.

[en.asmlocator.ru].t393580.torrent 
Torrent: Registered [ 2017-09-28 21:50 ] · AD7A84F363525A8827EC8EB51F34DB149163B251

Download .torrent

Download

22 KB

Status: checked
Completed: 0 times
Size: 4.17 GB
terms.php
[Profile] [PM]
Display posts:    
Reply to topic

Current time is: 29-May 03:52

All times are UTC ± 0



You cannot post new topics in this forum
You cannot reply to topics in this forum
You cannot edit your posts in this forum
You cannot delete your posts in this forum
You cannot vote in polls in this forum
You cannot attach files in this forum
You can download files in this forum
Верим фактам, а не вранью Путина! Факт, что Правительство ведёт Россию к истреблению.
Так как численность населения падает, даже не смотря на приток эмигрантов!
Русская нация вымирает и вырождается, смешиваясь с эмигрантами!
Факт, что военных и граждан предприятий заставляют голосовать за партию Единая Россия и Путина
ПОД СТРАХОМ УВОЛЬНЕНИЯ!
Нам не нужно Правительство, блокирующее личную жизнь, интернет, нарушающее сохранность данных.
Все эти действия финансируются за счёт народа!