Маленький друг / The Healer / Little Pal (Реджинальд Баркер / Reginald Barker) [1935, США, драма, TVRip] MVO ("СВЕТЛА") + Original Eng

Reply to topic
DL-List and Torrent activity
Size:  4.03 GB   |    Registered:  4 years   |    Completed:  0 times

Seeder not seen: Never

 
   
 
 
Author Message

star21 ®

Gender: Female

Longevity: 4 years 1 month

Posts: 551946

Location: Екатеринбург

Post 30-Nov-2015 05:48

[Quote]

Маленький друг / The Healer / Little PalСлоган: «THE FACE ALL AMERICA HAS LEARNED TO LOVE!» Страна: США
Жанр: драма
Год выпуска: 1935
Продолжительность: 01:07:19
Перевод: Профессиональный (многоголосый закадровый) - "СВЕТЛА"
Cубтитры: нет
Оригинальная аудиодорожка: английский
Режиссер: Реджинальд Баркер / Reginald Barker
В ролях: Ральф Беллами, Карен Морли, Микки Руни, Джудит Аллен, Роберт МакУэйд, Брюс Уоррен, Дж. Фаррелл МакДональд, Vessie Farrell, Jack Hyam
Описание: Мальчик Джимми по прозвищу «Солдат» — жизнерадостный ребенок, он оптимистично смотрит на жизнь, не смотря на то, что его ноги парализованы и шанс обрести былую подвижность не велик. Родители мальчика, надеясь на лучшее, отправляют парнишку в небольшой медицинский центр, расположенный в глухом лесу, рядом с источником геотермальной воды.
Здесь практикует свой передовой метод лечения доктор Холден которого в народе прозвали «Целитель». Он лечит хрупкие тела детей, массажем и плаванием, тем самым, давая детям надежду обретения смысла жизни и веру в мечту. Его метод дает результаты и он надеется облегчить жизнь многим, построив в этом месте санаторий для парализованных детей. Его любят все пациенты, сотрудники-ассистенты и конечно Джимми, ставший ему лучшим другом.
Как правило, рядом с такими людьми как Холден оказываются нечистые на руку особы, желающие из любой, даже самой благородной, идеи получить деньги и только деньги. Пройдет время и наивный доктор осознает, что он оказался вовлеченным в неприятную компанию аферистов под руководством собственной жены и взбунтуется. А мальчик во время лесного пожара ради спасения жизни человека, сможет найти в себе силы подняться на ноги, оседлать велосипед и мчаться за помощью…
Доп. информация: Исходник найден в сети.Спасибо за рус. дорожку-- [imdb]http://www.imdb.com/title/tt0026637[/imdb]--The Healer_[Little Pal]_(1935)_TVRip_Sample_.ts--Синхронизация звук. дорожки
За что ему превеликая благодарность
--Качество видео: TVRip
Формат видео: MPEG TS
Видео: NTSC 4:3 (704x480) VBR, ~ 7687 kbps avg
Аудио 1: Russian, AC3, 2/0 (L,R) ch, 224 kbps, Delay 0 mSec
Аудио 2: English, AC3, 2/0 (L,R) ch, 224 kbps, Delay 0 mSec

MediaInfo

General
ID : 1 (0x1)
Complete name : C:\Temp\_RELEASES_\The Healer_[Little Pal]_(1935)_TVRip_.ts
Format : MPEG-TS
File size : 4.03 GiB
Duration : 1h 7mn
Overall bit rate mode : Variable
Overall bit rate : 8 563 Kbps
Maximum Overall bit rate : 35.5 Mbps
Video
ID : 4113 (0x1011)
Menu ID : 1 (0x1)
Format : MPEG Video
Format version : Version 2
Format profile : Main@Main
Format settings, BVOP : Yes
Format settings, Matrix : Custom
Format settings, GOP : M=3, N=15
Format settings, picture st : Frame
Codec ID : 2
Duration : 1h 7mn
Bit rate mode : Variable
Bit rate : 7 687 Kbps
Maximum bit rate : 9 587 Kbps
Width : 704 pixels
Height : 480 pixels
Display aspect ratio : 4:3
Frame rate : 29.970 fps
Standard : NTSC
Color space : YUV
Chroma subsampling : 4:2:0
Bit depth : 8 bits
Scan type : Interlaced
Scan order : Top Field First
Compression mode : Lossy
Bits/(Pixel*Frame) : 0.759
Time code of first frame : 00:00:00:00
Time code source : Group of pictures header
Stream size : 3.61 GiB (90%)
Writing library : (c) 1997-2003 Womble Multimedia, Inc. / MPEG-VCR V3.14 (02/2003) / Apr 29 2003
Color primaries : BT.601 NTSC
Transfer characteristics : BT.601
Matrix coefficients : BT.601
Audio #1
ID : 4352 (0x1100)
Menu ID : 1 (0x1)
Format : AC-3
Format/Info : Audio Coding 3
Mode extension : CM (complete main)
Format settings, Endianness : Big
Codec ID : 129
Duration : 1h 7mn
Bit rate mode : Constant
Bit rate : 224 Kbps
Channel(s) : 2 channels
Channel positions : Front: L R
Sampling rate : 48.0 KHz
Compression mode : Lossy
Stream size : 108 MiB (3%)
Language : Russian
Audio #2
ID : 4353 (0x1101)
Menu ID : 1 (0x1)
Format : AC-3
Format/Info : Audio Coding 3
Mode extension : CM (complete main)
Format settings, Endianness : Big
Codec ID : 129
Duration : 1h 7mn
Bit rate mode : Constant
Bit rate : 224 Kbps
Channel(s) : 2 channels
Channel positions : Front: L R
Sampling rate : 48.0 KHz
Compression mode : Lossy
Stream size : 108 MiB (3%)
Language : English

To download the content you need:
1. Download and install torrent client [for Windows] or for mobile system
2. Click on [Download]
Attention.
If the test YOU are NOT a ROBOT - does not work, then You are using an outdated browser.
Install the current browser and click on [Download]
Security: torrent client is allowed by Kaspersky.

[en.asmlocator.ru].t3933.torrent 
Torrent: Registered [ 2015-11-30 05:45 ] · 24C6A701E4F0C44E5F6CE300085989581FF7E4B6

Download .torrent

Download

21 KB

Status: checked
Completed: 0 times
Size: 4.03 GB
terms.php
[Profile] [PM]
Display posts:    
Reply to topic

Current time is: 08-Dec 16:12

All times are UTC ± 0



You cannot post new topics in this forum
You cannot reply to topics in this forum
You cannot edit your posts in this forum
You cannot delete your posts in this forum
You cannot vote in polls in this forum
You cannot attach files in this forum
You can download files in this forum
Верим фактам, а не вранью Путина! Факт, что Правительство ведёт Россию к истреблению.
Так как численность населения падает, даже не смотря на приток эмигрантов!
Русская нация вымирает и вырождается, смешиваясь с эмигрантами!
Факт, что военных и граждан предприятий заставляют голосовать за партию Единая Россия и Путина
ПОД СТРАХОМ УВОЛЬНЕНИЯ!
Нам не нужно Правительство, блокирующее личную жизнь, интернет, нарушающее сохранность данных.
Все эти действия финансируются за счёт народа!