Маленький друг / The Healer / Little Pal (Реджинальд Баркер / Reginald Barker) [1935, США, драма, TVRip] MVO ("СВЕТЛА") + Original Eng

Reply to topic
DL-List and Torrent activity
Size:  1.1 GB   |    Registered:  4 years   |    Completed:  0 times

Seeder not seen: Never

 
   
 
 
Author Message

star21 ®

Gender: Female

Longevity: 4 years 1 month

Posts: 551946

Location: Екатеринбург

Post 30-Nov-2015 05:48

[Quote]

Маленький друг / The Healer / Little PalСлоган: «THE FACE ALL AMERICA HAS LEARNED TO LOVE!» Страна: США
Жанр: драма
Год выпуска: 1935
Продолжительность: 01:07:19
Перевод: Профессиональный (многоголосый закадровый) - "СВЕТЛА"
Cубтитры: нет
Оригинальная аудиодорожка: английский
Режиссер: Реджинальд Баркер / Reginald Barker
В ролях: Ральф Беллами, Карен Морли, Микки Руни, Джудит Аллен, Роберт МакУэйд, Брюс Уоррен, Дж. Фаррелл МакДональд, Vessie Farrell, Jack Hyam
Описание: Мальчик Джимми по прозвищу «Солдат» — жизнерадостный ребенок, он оптимистично смотрит на жизнь, не смотря на то, что его ноги парализованы и шанс обрести былую подвижность не велик. Родители мальчика, надеясь на лучшее, отправляют парнишку в небольшой медицинский центр, расположенный в глухом лесу, рядом с источником геотермальной воды.
Здесь практикует свой передовой метод лечения доктор Холден которого в народе прозвали «Целитель». Он лечит хрупкие тела детей, массажем и плаванием, тем самым, давая детям надежду обретения смысла жизни и веру в мечту. Его метод дает результаты и он надеется облегчить жизнь многим, построив в этом месте санаторий для парализованных детей. Его любят все пациенты, сотрудники-ассистенты и конечно Джимми, ставший ему лучшим другом.
Как правило, рядом с такими людьми как Холден оказываются нечистые на руку особы, желающие из любой, даже самой благородной, идеи получить деньги и только деньги. Пройдет время и наивный доктор осознает, что он оказался вовлеченным в неприятную компанию аферистов под руководством собственной жены и взбунтуется. А мальчик во время лесного пожара ради спасения жизни человека, сможет найти в себе силы подняться на ноги, оседлать велосипед и мчаться за помощью…
Доп. информация: Рип сделан из этого-- [imdb]http://www.imdb.com/title/tt0026637[/imdb]--The Healer_[Little Pal]_(1935)_TVRip_Sample_.avi--Качество видео: TVRip
Формат видео: AVI
Видео: 624x464 (1.34:1), 23.976 fps, XviD build 50 ~2076 kbps avg, 0.30 bit/pixel
Аудио 1: 48 kHz, AC3 Dolby Digital, 1/0 (C) ch, ~112 kbps, Русский
Аудио 2: 48 kHz, AC3 Dolby Digital, 1/0 (C) ch, ~128 kbps, Английский

AviInfo

File: The Healer_[Little Pal]_(1935)_TVRip_.avi
Title: The Healer_[Little Pal]_(1935)
Copyleft: Ripped_by_rjhlb777
Genre: Drama
Category: Movie
Comment: MVO ("СВЕТЛА") + Original Eng
FileSize: 1122.55 Mb ( 1 177 083 904 bytes )
Play length: 01:07:19.118 (96842 frames)
Subtitles: Not Present
Video: 624x464 (1.34:1), 23.976 fps, XviD build 50 ~2076 kbps avg, 0.30 bit/pixel
Audio #1: 48 kHz, AC3 Dolby Digital, 1/0 (C) ch, ~112 kbps
Audio #2: 48 kHz, AC3 Dolby Digital, 1/0 (C) ch, ~128 kbps

MediaInfo

General
Complete name : C:\Temp\_RELEASES_\The Healer_[Little Pal]_(1935)_TVRip_.avi
Format : AVI
Format/Info : Audio Video Interleave
File size : 1.10 GiB
Duration : 1h 7mn
Overall bit rate : 2 331 Kbps
Movie name : The Healer_[Little Pal]_(1935)
Genre : Drama
Writing application : VirtualDubMod 1.5.10.3 | www.virtualdub-fr.org || (build 2550/release)
Original source form/Name : Movie
Copyright : Ripped_by_rjhlb777
Comment : MVO ("СВЕТЛА") + Original Eng
Video
ID : 0
Format : MPEG-4 Visual
Format profile : Advanced Simple@L5
Format settings, BVOP : 1
Format settings, QPel : No
Format settings, GMC : No warppoints
Format settings, Matrix : Default (MPEG)
Codec ID : XVID
Codec ID/Hint : XviD
Duration : 1h 7mn
Bit rate : 2 077 Kbps
Width : 624 pixels
Height : 464 pixels
Display aspect ratio : 4:3
Frame rate : 23.976 fps
Color space : YUV
Chroma subsampling : 4:2:0
Bit depth : 8 bits
Scan type : Progressive
Compression mode : Lossy
Bits/(Pixel*Frame) : 0.299
Stream size : 1 000 MiB (89%)
Writing library : XviD 1.2.1 (UTC 2008-12-04)
Audio #1
ID : 1
Format : AC-3
Format/Info : Audio Coding 3
Mode extension : CM (complete main)
Format settings, Endianness : Big
Codec ID : 2000
Duration : 1h 7mn
Bit rate mode : Constant
Bit rate : 112 Kbps
Channel(s) : 1 channel
Channel positions : Front: C
Sampling rate : 48.0 KHz
Compression mode : Lossy
Stream size : 53.9 MiB (5%)
Alignment : Split accross interleaves
Interleave, duration : 42 ms (1.00 video frame)
Interleave, preload duratio : 500 ms
Audio #2
ID : 2
Format : AC-3
Format/Info : Audio Coding 3
Mode extension : CM (complete main)
Format settings, Endianness : Big
Codec ID : 2000
Duration : 1h 7mn
Bit rate mode : Constant
Bit rate : 128 Kbps
Channel(s) : 1 channel
Channel positions : Front: C
Sampling rate : 48.0 KHz
Compression mode : Lossy
Stream size : 61.6 MiB (5%)
Alignment : Split accross interleaves
Interleave, duration : 42 ms (1.00 video frame)
Interleave, preload duratio : 500 ms

Скриншоты сравнения

Wrobel
http://screenshotcomparison.com/comparison/139288/picture:4

To download the content you need:
1. Download and install torrent client [for Windows] or for mobile system
2. Click on [Download]
Attention.
If the test YOU are NOT a ROBOT - does not work, then You are using an outdated browser.
Install the current browser and click on [Download]
Security: torrent client is allowed by Kaspersky.

[en.asmlocator.ru].t3932.torrent 
Torrent: Registered [ 2015-11-30 05:45 ] · 7DABD006A2A28F9CC199E9FD870F35FD1F70CA48

Download .torrent

Download

11 KB

Status: checked
Completed: 0 times
Size: 1.1 GB
terms.php
[Profile] [PM]
Display posts:    
Reply to topic

Current time is: 12-Dec 19:53

All times are UTC ± 0



You cannot post new topics in this forum
You cannot reply to topics in this forum
You cannot edit your posts in this forum
You cannot delete your posts in this forum
You cannot vote in polls in this forum
You cannot attach files in this forum
You can download files in this forum
Верим фактам, а не вранью Путина! Факт, что Правительство ведёт Россию к истреблению.
Так как численность населения падает, даже не смотря на приток эмигрантов!
Русская нация вымирает и вырождается, смешиваясь с эмигрантами!
Факт, что военных и граждан предприятий заставляют голосовать за партию Единая Россия и Путина
ПОД СТРАХОМ УВОЛЬНЕНИЯ!
Нам не нужно Правительство, блокирующее личную жизнь, интернет, нарушающее сохранность данных.
Все эти действия финансируются за счёт народа!