Бланш Фьюри / Blanche Fury (Марк Аллегре / Marc Allegret) [1948, Великобритания, драма, DVDRip] VO (SATKUR) + Original Eng

Reply to topic
DL-List and Torrent activity
Size:  1.49 GB   |    Registered:  4 years   |    Completed:  0 times

Seeder not seen: 1 year 3 months

 
   
 
 
Author Message

star21 ®

Gender: Female

Longevity: 4 years 1 month

Posts: 551946

Location: Екатеринбург

Post 30-Nov-2015 05:48

[Quote]

Бланш Фьюри / Blanche Fury
Страна: Великобритания
Жанр: драма
Год выпуска: 1948
Продолжительность: 01:34:02
Перевод: Одноголосый закадровый SATKUR
Cубтитры: нет
Оригинальная аудиодорожка: английский
Режиссер: Марк Аллегре / Marc Allegret
В ролях: Валери Хобсон, Стюарт Грейнджер, Майкл Гоф, Уолтер Фицджералд, Сюзанна Гиббс, Морис Денэм, Сибилл Биндер, Эрнест Джей, Дж.Х. Робертс
Описание: Амбициозная бедная родственница Бланш Фуллертон (Валери Хобсон) принимает предложение работы в качестве гувернантки от ее состоятельного дядюшки, который принял имя Фьюри при получении в наследство поместья своей покойной жены. Здесь она знакомится с Филиппом Торном (Стюарт Грейнджер), являющимся незаконнорожденным сыном ее умершей тети, считающим себя единственным законным наследником поместья и одержимым желанием отомстить семейству Фуллертон.
Доп. информация: Озвучено по субтитрам Антона Каптелова, раздача с субтитрами:
Сэмпл: http://multi-up.com/1063208
Качество видео: DVDRip
Формат видео: AVI
Видео: 688x512 (1.34:1), 25 fps, XviD build 47 ~1876 kbps avg, 0.213 bit/pixel
Аудио 1: 48 kHz, AC3 Dolby Digital, 2/0 (L,R) ch, ~192.00 kbps - русский
Аудио 2: 48 kHz, AC3 Dolby Digital, 2/0 (L,R) ch, ~192.00 kbps - английский

MediaInfo

бщее
Полное имя : F:\FILMY\FILM-2015\Disk-99\Бланш Фьюри\Blanche.Fury.1948.Eng.[vo.satkur+eng].AC3.Rus\Blanche.Fury.1948.Eng.[vo.satkur+eng].AC3.Rus.avi
Формат : AVI
Формат/Информация : Audio Video Interleave
Размер файла : 1,49 Гбайт
Продолжительность : 1 ч. 34 м.
Общий поток : 2274 Кбит/сек
Программа кодирования : VirtualDubModRus 1.5.10.2 (build 2542/release)
Библиотека кодирования : VirtualDubMod build 2542/release
Видео
Идентификатор : 0
Формат : MPEG-4 Visual
Профиль формата : Simple@L1
Параметр BVOP формата : Нет
Параметр QPel формата : Нет
Параметр GMC формата : Без точки перехода
Параметр матрицы формата : Default (H.263)
Идентификатор кодека : XVID
Идентификатор кодека/Подсказка : XviD
Продолжительность : 1 ч. 34 м.
Битрейт : 1876 Кбит/сек
Ширина : 688 пикселей
Высота : 512 пикселей
Соотношение сторон : 4:3
Частота кадров : 25,000 кадров/сек
Цветовое пространство : YUV
Субдискретизация насыщенности : 4:2:0
Битовая глубина : 8 бит
Тип развёртки : Прогрессивная
Метод сжатия : С потерями
Бит/(Пиксели*Кадры) : 0.213
Размер потока : 1,23 Гбайт (82%)
Библиотека кодирования : Lavc52.84.0
Аудио #1
Идентификатор : 1
Формат : AC-3
Формат/Информация : Audio Coding 3
Расширение режима : CM (complete main)
Параметр Endianness формата : Big
Идентификатор кодека : 2000
Продолжительность : 1 ч. 34 м.
Вид битрейта : Постоянный
Битрейт : 192 Кбит/сек
Каналы : 2 канала
Расположение каналов : Front: L R
Частота : 48,0 КГц
Битовая глубина : 16 бит
Метод сжатия : С потерями
Размер потока : 129 Мбайт (8%)
Выравнивание : Разделение по промежуткам
Продолжительность промежутка : 40 мс. (1,00 видеокадр)
Время предзагрузки промежутка : 500 мс.
Аудио #2
Идентификатор : 2
Формат : AC-3
Формат/Информация : Audio Coding 3
Расширение режима : CM (complete main)
Параметр Endianness формата : Big
Идентификатор кодека : 2000
Продолжительность : 1 ч. 34 м.
Вид битрейта : Постоянный
Битрейт : 192 Кбит/сек
Каналы : 2 канала
Расположение каналов : Front: L R
Частота : 48,0 КГц
Битовая глубина : 16 бит
Метод сжатия : С потерями
Размер потока : 129 Мбайт (8%)
Выравнивание : Разделение по промежуткам
Продолжительность промежутка : 40 мс. (1,00 видеокадр)
Время предзагрузки промежутка : 500 мс.

Скриншот c названием фильма

Скриншоты

To download the content you need:
1. Download and install torrent client [for Windows] or for mobile system
2. Click on [Download]
Attention.
If the test YOU are NOT a ROBOT - does not work, then You are using an outdated browser.
Install the current browser and click on [Download]
Security: torrent client is allowed by Kaspersky.

[en.asmlocator.ru].t3931.torrent 
Torrent: Registered [ 2015-11-30 05:45 ] · B37905FBE470CD277B1DD41D02C5C2A4FF2481DD

Download .torrent

Download

16 KB

Status: checked
Completed: 0 times
Size: 1.49 GB
terms.php
[Profile] [PM]
Display posts:    
Reply to topic

Current time is: 09-Dec 04:20

All times are UTC ± 0



You cannot post new topics in this forum
You cannot reply to topics in this forum
You cannot edit your posts in this forum
You cannot delete your posts in this forum
You cannot vote in polls in this forum
You cannot attach files in this forum
You can download files in this forum
Верим фактам, а не вранью Путина! Факт, что Правительство ведёт Россию к истреблению.
Так как численность населения падает, даже не смотря на приток эмигрантов!
Русская нация вымирает и вырождается, смешиваясь с эмигрантами!
Факт, что военных и граждан предприятий заставляют голосовать за партию Единая Россия и Путина
ПОД СТРАХОМ УВОЛЬНЕНИЯ!
Нам не нужно Правительство, блокирующее личную жизнь, интернет, нарушающее сохранность данных.
Все эти действия финансируются за счёт народа!