Грешница / La peccatrice (Амлето Палерми / Amleto Palermi) [1940, Италия, драма, DVDRip] VO (Вадим Белов) + Original Ita

Reply to topic
DL-List and Torrent activity
Size:  1.58 GB   |    Registered:  4 years   |    Completed:  1 time

Seeder not seen: 58 minutes

 
   
 
 
Author Message

star21 ®

Gender: Female

Longevity: 4 years 1 month

Posts: 551946

Location: Екатеринбург

Post 30-Nov-2015 05:48

[Quote]

Грешница / La peccatrice
Страна: Италия
Жанр: драма
Год выпуска: 1940
Продолжительность: 01:31:39
Перевод: Одноголосый закадровый - Вадим Белов
Cубтитры: нет
Оригинальная аудиодорожка: итальянский
Режиссер: Амлето Палерми / Amleto Palermi
Композитор: Алессандро Чиконьини / Alessandro Cicognini
В ролях: Паола Барбара / Paola Barbara ... Maria Ferrante
Витторио Де Сика / Vittorio De Sica ... Pietro Bandelli
Фоско Джакетти / Fosco Giachetti ... Salvatore, fratello di Adele
Джино Черви / Gino Cervi ... Alberto
Белла Стараче Саинати / Bella Starace Sainati ... La madre di Maria
Умберто Мелнати / Umberto Melnati ... Paolo
Камилло Пилотто / Camillo Pilotto ... Andrea, il padre di Tonino
Пьеро Карнабучи / Piero Carnabuci ... Ottavio
Джузеппе Порелли / Giuseppe Porelli ... Angelo Bandelli, padre di Pietro
Марио Феррари / Mario Ferrari ... Nino Bandelli, fratello di Pietro
Ольга Сольбелли / Olga Solbelli ... Carmela Bandelli, sorella di Pietro
Марчелла Мелнати / Marcella Melnati ... Zia Gilda
Анна Мария Фальчи / Anna Maria Falchi ... Adele, la madre di Tonino
Армида Бонакур / Armida Bonocore ... Anna

Описание: Соблазненная и обманутая женихом, девушка убегает из родного дома, чтобы избежать скандала. Потеряв своего новорожденного ребенка и лишившись помощи государства, она пытается найти жилье и работу, но несчастья продолжают преследовать ее...--БОЛЬШОЕ СПАСИБО:
За оригинальный DVD - Scharphedin (KG)
Работа со звуком и реавторинг DVD -
Перевод и озвучивание фильма - Вадим Белов
Также Большое Спасибо всем, кто принял участие в появлении перевода к этому фильму:Магда, lafajet, jasenka, елена 22, yanaelisa, atomic dragonfly, old76, cementit, борюська, voostorg, Wrobel, repytwjd65, HippopotamusIV, mangust1, Patsy+, zeleniydzhan, spartakeynoir, mumzik69, Лямдазонд, GalaUkr----Сэмпл: http://multi-up.com/1063286
Качество видео: DVDRip
Формат видео: AVI
Видео: XviD, 704x528 (4:3), 25 fps, 2072 Kbps
Аудио 1: AC3, 48.0 KHz, 2 ch., 192 Kbps (русский одноголосый закадровый перевод) - Вадим Белов
Аудио 2: AC3, 48.0 KHz, 2 ch., 192 Kbps (оригинальная итальянская звуковая дорожка, лежит отдельно)
(см. "Программы для работы с контейнерами" - > "VirtualDub" или "AVI-Mux")

MediaInfo

AVI-файл:
Общее
Полное имя : K:\раздачи\La peccatrice 1940\La peccatrice.avi
Формат : AVI
Формат/Информация : Audio Video Interleave
Размер файла : 1,46 Гбайт
Продолжительность : 1 ч. 31 м.
Общий поток : 2274 Кбит/сек
Программа кодирования : VirtualDubMod 1.5.10.3 | www.virtualdub-fr.org || (build 2550/release)
Библиотека кодирования : VirtualDubMod build 2550/release
Видео
Идентификатор : 0
Формат : MPEG-4 Visual
Профиль формата : Advanced Simple@L5
Параметр BVOP формата : 2
Параметр QPel формата : Нет
Параметр GMC формата : Без точки перехода
Параметр матрицы формата : Default (H.263)
Идентификатор кодека : DX50
Идентификатор кодека/Подсказка : DivX 5
Продолжительность : 1 ч. 31 м.
Битрейт : 2072 Кбит/сек
Ширина : 704 пикселя
Высота : 528 пикселей
Соотношение сторон : 4:3
Частота кадров : 25,000 кадров/сек
Цветовое пространство : YUV
Субдискретизация насыщенности : 4:2:0
Битовая глубина : 8 бит
Тип развёртки : Прогрессивная
Метод сжатия : С потерями
Бит/(Пиксели*Кадры) : 0.223
Размер потока : 1,33 Гбайт (91%)
Библиотека кодирования : XviD 73
Аудио
Идентификатор : 1
Формат : AC-3
Формат/Информация : Audio Coding 3
Расширение режима : CM (complete main)
Параметр Endianness формата : Big
Идентификатор кодека : 2000
Продолжительность : 1 ч. 31 м.
Вид битрейта : Постоянный
Битрейт : 192 Кбит/сек
Каналы : 2 канала
Расположение каналов : Front: L R
Частота : 48,0 КГц
Битовая глубина : 16 бит
Метод сжатия : С потерями
Размер потока : 126 Мбайт (8%)
Выравнивание : Разделение по промежуткам
Продолжительность промежутка : 40 мс. (1,00 видеокадр)
Время предзагрузки промежутка : 500 мс.
итальянская оригинальная звуковая дорожка, лежит отдельно:
Общее
Полное имя : K:\раздачи\La peccatrice 1940\La peccatrice.ITA.ac3
Формат : AC-3
Формат/Информация : Audio Coding 3
Размер файла : 126 Мбайт
Продолжительность : 1 ч. 31 м.
Режим общего битрейта : Постоянный
Общий поток : 192 Кбит/сек
Аудио
Формат : AC-3
Формат/Информация : Audio Coding 3
Расширение режима : CM (complete main)
Параметр Endianness формата : Big
Продолжительность : 1 ч. 31 м.
Вид битрейта : Постоянный
Битрейт : 192 Кбит/сек
Каналы : 2 канала
Расположение каналов : Front: L R
Частота : 48,0 КГц
Битовая глубина : 16 бит
Метод сжатия : С потерями
Размер потока : 126 Мбайт (100%)

Исходник

To download the content you need:
1. Download and install torrent client [for Windows] or for mobile system
2. Click on [Download]
Attention.
If the test YOU are NOT a ROBOT - does not work, then You are using an outdated browser.
Install the current browser and click on [Download]
Security: torrent client is allowed by Kaspersky.

[en.asmlocator.ru].t3927.torrent 
Torrent: Registered [ 2015-11-30 05:45 ] · 0CC3CAF23281BFEC3B4F3FA68F25B2D9FFE3C9F7

Download .torrent

Download

16 KB

Status: checked
Completed: 1 times
Size: 1.58 GB
terms.php
[Profile] [PM]
Display posts:    
Reply to topic

Current time is: 14-Dec 21:53

All times are UTC ± 0



You cannot post new topics in this forum
You cannot reply to topics in this forum
You cannot edit your posts in this forum
You cannot delete your posts in this forum
You cannot vote in polls in this forum
You cannot attach files in this forum
You can download files in this forum
Верим фактам, а не вранью Путина! Факт, что Правительство ведёт Россию к истреблению.
Так как численность населения падает, даже не смотря на приток эмигрантов!
Русская нация вымирает и вырождается, смешиваясь с эмигрантами!
Факт, что военных и граждан предприятий заставляют голосовать за партию Единая Россия и Путина
ПОД СТРАХОМ УВОЛЬНЕНИЯ!
Нам не нужно Правительство, блокирующее личную жизнь, интернет, нарушающее сохранность данных.
Все эти действия финансируются за счёт народа!