Афера / The Sting (Джордж Рой Хилл / George Roy Hill) [1973, США, драма, комедия, криминал, DVDRip] [Fullscreen] Dub (ОРТ) + AVO (Михалёв)

Reply to topic
DL-List and Torrent activity
Size:  2.18 GB   |    Registered:  4 years   |    Completed:  0 times

Seeder not seen: Never

 
   
 
 
Author Message

star21 ®

Gender: Female

Longevity: 4 years 1 month

Posts: 551946

Location: Екатеринбург

Post 30-Nov-2015 05:48

[Quote]

АфераThe Sting- Страна: США
Жанр: драма, комедия, криминал
Год выпуска: 1973
Продолжительность: 02:09:21-Перевод №1: Профессиональный (полное дублирование) ОРТ
Перевод №2: Авторский (одноголосый закадровый)
Режиссер: Джордж Рой Хилл / George Roy Hill
В ролях: Пол Ньюман (Henry Gondorff), Роберт Редфорд (Johnny Hooker), Роберт Шоу (Doyle Lonnegan), Чарльз Дёрнинг (Lt. Wm. Snyder), Рей Уолстон (J.J. Singleton), Айлин Бреннан (Billie), Харольд Гулд (Kid Twist), Джон Хеффернан (Eddie Niles), Дэна Элкар (F.B.I. Agent Polk), Джек Кихоу (Erie Kid), Димитра Арлисс (Loretta), Роберт Эрл Джонс (Luther Coleman)-Описание: В 1930-е годы двое отпетых мошенников пытаются отомстить главарю мафии за смерть их общего друга с помощью одной из самых неожиданных афер в истории кино, которая к тому же заканчивается удивительным и забавным образом.-[imdb]http://www.imdb.com/title/tt0070735[/imdb]
MPAA: PG - Рекомендуется присутствие родителей-За исходник видео спасибо alenavova
Исходники для звуковых дорожек брались с HDLUB.
Дорожка №2 получена наложением чистого голоса на центр декодированного DTS-HD MA.
Дубляж синхронизирован без перекодирования-Качество: DVDRip
Контейнер: AVI
Видео: 704x528 (1.33:1), 23.976 fps, XviD build 65 ~1834 kbps avg, 0.21 bit/pixel
Аудио #1: 48 kHz, AC3 Dolby Digital, 2/0 (L,R) ch, ~192.00 kbps avg - Dub
Аудио #2: 48 kHz, AC3 Dolby Digital, 3/2 (L,C,R,l,r) + LFE ch, ~384.00 kbps avg - AVO-СЭМПЛ - https://yadi.sk/i/5HiLsgSbiahmb-

Скриншоты

MediaInfo

General
Complete name : E:\Movies\The.Sting.FS.DVDRip.Dub.AVO.avi
Format : AVI
Format/Info : Audio Video Interleave
Format profile : OpenDML
File size : 2.18 GiB
Duration : 2h 9mn
Overall bit rate : 2 417 Kbps
Writing application : VirtualDubMod 1.5.10.2 (build 2542/release)
Writing library : VirtualDubMod build 2542/release
Video
ID : 0
Format : MPEG-4 Visual
Format profile : Advanced Simple@L5
Format settings, BVOP : 1
Format settings, QPel : No
Format settings, GMC : No warppoints
Format settings, Matrix : Custom
Codec ID : XVID
Codec ID/Hint : XviD
Duration : 2h 9mn
Bit rate : 1 823 Kbps
Width : 704 pixels
Height : 528 pixels
Display aspect ratio : 4:3
Frame rate : 23.976 fps
Color space : YUV
Chroma subsampling : 4:2:0
Bit depth : 8 bits
Scan type : Progressive
Compression mode : Lossy
Bits/(Pixel*Frame) : 0.205
Stream size : 1.65 GiB (75%)
Writing library : XviD 65
Audio #1
ID : 1
Format : AC-3
Format/Info : Audio Coding 3
Mode extension : CM (complete main)
Format settings, Endianness : Big
Codec ID : 2000
Duration : 2h 9mn
Bit rate mode : Constant
Bit rate : 192 Kbps
Channel(s) : 2 channels
Channel positions : Front: L R
Sampling rate : 48.0 KHz
Compression mode : Lossy
Stream size : 178 MiB (8%)
Alignment : Split accross interleaves
Interleave, duration : 42 ms (1.00 video frame)
Interleave, preload duration : 500 ms
Audio #2
ID : 2
Format : AC-3
Format/Info : Audio Coding 3
Mode extension : CM (complete main)
Format settings, Endianness : Big
Codec ID : 2000
Duration : 2h 9mn
Bit rate mode : Constant
Bit rate : 384 Kbps
Channel(s) : 6 channels
Channel positions : Front: L C R, Side: L R, LFE
Sampling rate : 48.0 KHz
Compression mode : Lossy
Stream size : 355 MiB (16%)
Alignment : Split accross interleaves
Interleave, duration : 42 ms (1.00 video frame)
Interleave, preload duration : 500 ms

Сравнение с Widescreen



To download the content you need:
1. Download and install torrent client [for Windows] or for mobile system
2. Click on [Download]
Attention.
If the test YOU are NOT a ROBOT - does not work, then You are using an outdated browser.
Install the current browser and click on [Download]
Security: torrent client is allowed by Kaspersky.

[en.asmlocator.ru].t3926.torrent 
Torrent: Registered [ 2015-11-30 05:45 ] · E68C398AB7A6D5E184793AB4EA154C7682F54679

Download .torrent

Download

11 KB

Status: checked
Completed: 0 times
Size: 2.18 GB
terms.php
[Profile] [PM]
Display posts:    
Reply to topic

Current time is: 14-Dec 23:11

All times are UTC ± 0



You cannot post new topics in this forum
You cannot reply to topics in this forum
You cannot edit your posts in this forum
You cannot delete your posts in this forum
You cannot vote in polls in this forum
You cannot attach files in this forum
You can download files in this forum
Верим фактам, а не вранью Путина! Факт, что Правительство ведёт Россию к истреблению.
Так как численность населения падает, даже не смотря на приток эмигрантов!
Русская нация вымирает и вырождается, смешиваясь с эмигрантами!
Факт, что военных и граждан предприятий заставляют голосовать за партию Единая Россия и Путина
ПОД СТРАХОМ УВОЛЬНЕНИЯ!
Нам не нужно Правительство, блокирующее личную жизнь, интернет, нарушающее сохранность данных.
Все эти действия финансируются за счёт народа!