Мистер Мото идет на риск / Mr. Moto Takes a Chance (Норман Фостер / Norman Foster) [1938, США, детектив, приключения, DVDRip] VO (SATKUR) + Sub Rus + Original Eng

Reply to topic
DL-List and Torrent activity
Size:  877 MB   |    Registered:  4 years   |    Completed:  0 times

Seeder not seen: Never

 
   
 
 
Author Message

star21 ®

Gender: Female

Longevity: 4 years 1 month

Posts: 551946

Location: Екатеринбург

Post 30-Nov-2015 05:48

[Quote]

Мистер Мото идет на риск / Mr. Moto Takes a Chance
Страна: США
Жанр: детектив, приключения
Год выпуска: 1938
Продолжительность: 01:03:47
Перевод: Одноголосый закадровый SATKUR
Cубтитры: русские
Оригинальная аудиодорожка: английский
Режиссер: Норман Фостер / Norman Foster
В ролях: Петер Лорре, Рошель Хадсон, Роберт Кент, Чик Чандлер, Дж. Эдвард Бромберг, Джордж Регас, Фредерик Вогединг, Х.В. Джим, Ал Кикуме, Джеймс Б. Леонг, Глория Рой, Виктор Сен Юнг
Описание: Прекрасная летчица Виктория Мэйсон объединяется с мистером Мото в Юго-Восточной Азии, чтобы разоблачить убийцу - верховного жреца, пытающегося сбросить правящего раджу Али.
Доп. информация: Озвучено по субтитрам Serveladkin, источник
Сэмпл: http://multi-up.com/1063327
Качество видео: DVDRip
Формат видео: AVI
Видео: 640x480 (1.33:1), 23.976 fps, XviD build 47 ~1523 kbps avg, 0.21 bit/pixel
Аудио 1: 48 kHz, AC3 Dolby Digital, 2/0 (L,R) ch, ~192.00 kbps - русский
Аудио 2: 48 kHz, AC3 Dolby Digital, 2/0 (L,R) ch, ~192.00 kbps - английский
Формат субтитров: softsub (SRT)

MediaInfo

Общее
Полное имя : F:\FILMY\FILM-2015\Disk-100\Мистер Мото идёт на риск\Mr.Moto.Takes.a.Chance.1938.USA.[vo.satkur+eng].AC3.Rus\Mr.Moto.Takes.a.Chance.1938.USA.[vo.satkur+eng].AC3.Rus.avi
Формат : AVI
Формат/Информация : Audio Video Interleave
Размер файла : 877 Мбайт
Продолжительность : 1 ч. 3 м.
Общий поток : 1922 Кбит/сек
Программа кодирования : VirtualDubModRus 1.5.10.2 (build 2542/release)
Библиотека кодирования : VirtualDubMod build 2542/release
Видео
Идентификатор : 0
Формат : MPEG-4 Visual
Профиль формата : Advanced Simple@L5
Параметр BVOP формата : 1
Параметр QPel формата : Нет
Параметр GMC формата : Без точки перехода
Параметр матрицы формата : Выборочная
Идентификатор кодека : XVID
Идентификатор кодека/Подсказка : XviD
Продолжительность : 1 ч. 3 м.
Битрейт : 1523 Кбит/сек
Ширина : 640 пикселей
Высота : 480 пикселей
Соотношение сторон : 4:3
Частота кадров : 23,976 кадра/сек
Цветовое пространство : YUV
Субдискретизация насыщенности : 4:2:0
Битовая глубина : 8 бит
Тип развёртки : Прогрессивная
Метод сжатия : С потерями
Бит/(Пиксели*Кадры) : 0.207
Размер потока : 695 Мбайт (79%)
Библиотека кодирования : XviD 1.2.0.dev47 (UTC 2006-11-01)
Аудио #1
Идентификатор : 1
Формат : AC-3
Формат/Информация : Audio Coding 3
Расширение режима : CM (complete main)
Параметр Endianness формата : Big
Идентификатор кодека : 2000
Продолжительность : 1 ч. 3 м.
Вид битрейта : Постоянный
Битрейт : 192 Кбит/сек
Каналы : 2 канала
Расположение каналов : Front: L R
Частота : 48,0 КГц
Битовая глубина : 16 бит
Метод сжатия : С потерями
Размер потока : 87,6 Мбайт (10%)
Выравнивание : Разделение по промежуткам
Продолжительность промежутка : 42 мс. (1,00 видеокадр)
Время предзагрузки промежутка : 500 мс.
Язык : English
Аудио #2
Идентификатор : 2
Формат : AC-3
Формат/Информация : Audio Coding 3
Расширение режима : CM (complete main)
Параметр Endianness формата : Big
Идентификатор кодека : 2000
Продолжительность : 1 ч. 3 м.
Вид битрейта : Постоянный
Битрейт : 192 Кбит/сек
Каналы : 2 канала
Расположение каналов : Front: L R
Частота : 48,0 КГц
Битовая глубина : 16 бит
Метод сжатия : С потерями
Размер потока : 87,6 Мбайт (10%)
Выравнивание : Разделение по промежуткам
Продолжительность промежутка : 42 мс. (1,00 видеокадр)
Время предзагрузки промежутка : 500 мс.

Скриншот c названием фильма

Скриншоты

To download the content you need:
1. Download and install torrent client [for Windows] or for mobile system
2. Click on [Download]
Attention.
If the test YOU are NOT a ROBOT - does not work, then You are using an outdated browser.
Install the current browser and click on [Download]
Security: torrent client is allowed by Kaspersky.

[en.asmlocator.ru].t3925.torrent 
Torrent: Registered [ 2015-11-30 05:45 ] · A3206AD8EF0AEF3D25FFF754BA30EF7E352D6D14

Download .torrent

Download

18 KB

Status: checked
Completed: 0 times
Size: 877 MB
terms.php
[Profile] [PM]
Display posts:    
Reply to topic

Current time is: 12-Dec 02:52

All times are UTC ± 0



You cannot post new topics in this forum
You cannot reply to topics in this forum
You cannot edit your posts in this forum
You cannot delete your posts in this forum
You cannot vote in polls in this forum
You cannot attach files in this forum
You can download files in this forum
Верим фактам, а не вранью Путина! Факт, что Правительство ведёт Россию к истреблению.
Так как численность населения падает, даже не смотря на приток эмигрантов!
Русская нация вымирает и вырождается, смешиваясь с эмигрантами!
Факт, что военных и граждан предприятий заставляют голосовать за партию Единая Россия и Путина
ПОД СТРАХОМ УВОЛЬНЕНИЯ!
Нам не нужно Правительство, блокирующее личную жизнь, интернет, нарушающее сохранность данных.
Все эти действия финансируются за счёт народа!