Русские идут! Русские идут! / The Russians Are Coming the Russians Are Coming (Норман Джуисон / Norman Jewison) [1966, США, Комедия, военный, BDRip] MVO (ТВ5) + AVO (Сербин)

Reply to topic
DL-List and Torrent activity
Size:  1.46 GB   |    Registered:  4 years   |    Completed:  2 times

Seeder not seen: 1 month 23 days

 
   
 
 
Author Message

star21 ®

Gender: Female

Longevity: 4 years 1 month

Posts: 551946

Location: Екатеринбург

Post 30-Nov-2015 05:48

[Quote]

Русские идут! Русские идут! / The Russians Are Coming the Russians Are Coming- Год выпуска: 1966
Выпущено: США / The Mirisch Corporation
Жанр: комедия, военный
Продолжительность: 02:05:44
Перевод (1): Профессиональный (многоголосый закадровый) ТВ5
Перевод (2): Авторский (одноголосый закадровый) Юрий Сербин
Cубтитры: нет-Режиссер:
Норман Джуисон / Norman Jewison-В ролях:
Карл Райнер (Walt Whittaker), Ева Мари Сэйнт (Elspeth Whittaker), Алан Аркин (Lt. Rozanov), Брайан Кит (Police Chief Link Mattocks), Джонатан Уинтерс (Norman Jonas), Пол Форд (Fendall Hawkins), Теодор Бикел (The Russian captain), Тесси О’Ши (Alice Foss (telephone operator)), Джон Филлип Ло (Alexei Kolchin), Бен Блу (Luther Grilk)-Описание:
Сатирическая комедия. Во времена холодной войны советская подлодка садится на мель у мифического острова в штате Массачусетс. Не зная, что делать в данной ситуации, самым разумным решением оказывается высадиться на берег и найти судно, чтобы отбуксировать подлодку с мели и тихо уплыть. Однако незамеченными русским уйти не удается, и вот уже вскоре весь маленький островок в панике: «Русские идут! Русские идут!»-Релиз групп | | [imdb]http://www.imdb.com/title/tt0060921[/imdb] | КиноПоиск | Сэмпл |-Качество: BDRip []
Формат: AVI
Видео: 720x304 (2.37:1), 23.976 fps, XviD build 73 ~1266 kbps avg, 0.24 bit/pixel
Аудио #1: 48 kHz, AC3 Dolby Digital, 2/0 (L,R) ch, ~192.00 kbps avg (MVO) ТВ5
Аудио #2: 48 kHz, AC3 Dolby Digital, 2/0 (L,R) ch, ~192.00 kbps avg (AVO) Юрий Сербин-

Скриншоты

MediaInfo

General
Complete name                            : D:\Russkie_idut!_Russkie_idut!_1966_BDRip_by_Dalemake.avi
Format                                   : AVI
Format/Info                              : Audio Video Interleave
File size                                : 1.46 GiB
Duration                                 : 2h 5mn
Overall bit rate                         : 1 665 Kbps
Writing application                      : VirtualDubMod 1.5.10.3 | www.virtualdub-fr.org || (build 2550/release)
Writing library                          : VirtualDubMod build 2550/release
Video
ID                                       : 0
Format                                   : MPEG-4 Visual
Format profile                           : Advanced Simple@L5
Format settings, BVOP                    : 1
Format settings, QPel                    : No
Format settings, GMC                     : No warppoints
Format settings, Matrix                  : Custom
Codec ID                                 : XVID
Codec ID/Hint                            : XviD
Duration                                 : 2h 5mn
Bit rate                                 : 1 267 Kbps
Width                                    : 720 pixels
Height                                   : 304 pixels
Display aspect ratio                     : 2.35:1
Frame rate                               : 23.976 fps
Color space                              : YUV
Chroma subsampling                       : 4:2:0
Bit depth                                : 8 bits
Scan type                                : Progressive
Compression mode                         : Lossy
Bits/(Pixel*Frame)                       : 0.241
Stream size                              : 1.11 GiB (76%)
Writing library                          : XviD 73
Audio #1
ID                                       : 1
Format                                   : AC-3
Format/Info                              : Audio Coding 3
Mode extension                           : CM (complete main)
Format settings, Endianness              : Big
Codec ID                                 : 2000
Duration                                 : 2h 5mn
Bit rate mode                            : Constant
Bit rate                                 : 192 Kbps
Channel(s)                               : 2 channels
Channel positions                        : Front: L R
Sampling rate                            : 48.0 KHz
Bit depth                                : 16 bits
Compression mode                         : Lossy
Stream size                              : 173 MiB (12%)
Alignment                                : Split accross interleaves
Interleave, duration                     : 42 ms (1.00 video frame)
Interleave, preload duration             : 500 ms
Audio #2
ID                                       : 2
Format                                   : AC-3
Format/Info                              : Audio Coding 3
Mode extension                           : CM (complete main)
Format settings, Endianness              : Big
Codec ID                                 : 2000
Duration                                 : 2h 5mn
Bit rate mode                            : Constant
Bit rate                                 : 192 Kbps
Channel(s)                               : 2 channels
Channel positions                        : Front: L R
Sampling rate                            : 48.0 KHz
Bit depth                                : 16 bits
Compression mode                         : Lossy
Stream size                              : 173 MiB (12%)
Alignment                                : Split accross interleaves
Interleave, duration                     : 42 ms (1.00 video frame)
Interleave, preload duration             : 500 ms
-

To download the content you need:
1. Download and install torrent client [for Windows] or for mobile system
2. Click on [Download]
Attention.
If the test YOU are NOT a ROBOT - does not work, then You are using an outdated browser.
Install the current browser and click on [Download]
Security: torrent client is allowed by Kaspersky.

[en.asmlocator.ru].t3920.torrent 
Torrent: Registered [ 2015-11-30 05:45 ] · 3AB965C73BAEF34C9E3E88A8913A3AAE01043C8A

Download .torrent

Download

15 KB

Status: checked
Completed: 2 times
Size: 1.46 GB
terms.php
[Profile] [PM]
Display posts:    
Reply to topic

Current time is: 12-Dec 16:15

All times are UTC ± 0



You cannot post new topics in this forum
You cannot reply to topics in this forum
You cannot edit your posts in this forum
You cannot delete your posts in this forum
You cannot vote in polls in this forum
You cannot attach files in this forum
You can download files in this forum
Верим фактам, а не вранью Путина! Факт, что Правительство ведёт Россию к истреблению.
Так как численность населения падает, даже не смотря на приток эмигрантов!
Русская нация вымирает и вырождается, смешиваясь с эмигрантами!
Факт, что военных и граждан предприятий заставляют голосовать за партию Единая Россия и Путина
ПОД СТРАХОМ УВОЛЬНЕНИЯ!
Нам не нужно Правительство, блокирующее личную жизнь, интернет, нарушающее сохранность данных.
Все эти действия финансируются за счёт народа!