Сатирикон / Satyricon / The Degenerates (Джан Луиджи Полидоро / Gian Luigi Polidoro) [1969, Италия, Трагикомедия, VHSRip] [Цензурированная версия] Sub Rus + Original Ita

Reply to topic
DL-List and Torrent activity
Size:  880 MB   |    Registered:  4 years   |    Completed:  0 times

Seeder not seen: Never

 
   
 
 
Author Message

star21 ®

Gender: Female

Longevity: 4 years 1 month

Posts: 551946

Location: Екатеринбург

Post 30-Nov-2015 05:48

[Quote]

Сатирикон / Satyricon / The Degenerates [Цензурированная версия]
Торрент-файл перезалит 23.08.2015: заменен файл с субтитрами.
Страна: Италия
Жанр: Трагикомедия
Год выпуска: 1969
Продолжительность: 01:48:06
Перевод: Субтитры
Cубтитры: русские
Оригинальная аудиодорожка: итальянский
Режиссер: Джан Луиджи Полидоро / Gian Luigi Polidoro
В ролях: Тина Омон (Кирка), Дон Бэки (Энколпий), Марио Каротенуто (Эвмолп), Франко Фабрици (Аскилт), Грациэлла Граната (Антония), Валери Лагранж (Трифэна), Франческо Пау (Гитон), Уго Тоньяцци (Трималхион)
Описание: Экранизация романа Петрония Арбитра, которую мало кто видел, но о которой слышал почти каждый, кто смотрел Сатирикон Феллини.
Доп. информация:
Здесь раздача "Всё в одном":
С одноголосой русской озвучкой для тех, кто не любит титры,
с титрами - для тех, кто не любит одноголосые озвучки,
оригинальной итальянской дорожкой,
немного лучшего качества
и со статусом "проверено" )
Сразу предупреждаю, фильм порезан цензорами совершенно безобразно. Качество картинки и звука тоже паршивое. Но если кто-то захочет ознакомиться с "альтернативной" версией Сатирикона и сравнить ее с шедевром Феллини, то другого варианта, насколько мне известно, нет. И, судя по всему, вряд ли будет. Фильм очень редкий.
Альтернативное название, под которым картина шла в международном прокате, - The Degenerates.

скрытый текст

Информации об этом фильме очень мало. Даже на таких ресурсах как imdb или kinopoisk ее практически нет, а та что есть представлена в искаженном виде (так как фильм постоянно путают с фильмом Феллини).
Первоначальная версия фильма была продолжительностью более 2 часов, и сразу после выхода в Италии была арестована за непристойность. Создатели фильма были оштрафованы, а фильм подвергнут цензуре, после чего его продолжительность составила 120 мин.
В 90-х годах прошлого века, перед выпуском на VHS и показом по итальянскому ТВ, фильм был с особой жестокостью отцензурирован еще раз: теперь из него дополнительно было вырезано более 10 минут "непристойных сцен".
Сюжетные прыжки, обрывающиеся диалоги, появляющиеся и исчезающие персонажи - не часть творческого замысла, как у Феллини, и не небрежность режиссера, а следствие того, что картина потеряла восьмую часть своей продолжительности.
Сэмпл: http://multi-up.com/1060564
Качество видео: VHSRip
Формат видео: AVI
Видео: DivX 5, 688x384, 16:9, 25.000 fps, 1 000 Kbps
Аудио: MP3, 44.1 KHz, 128 Kbps, 2 channels
Формат субтитров: softsub (SRT)

MediaInfo

General
Полное имя : P:\Satyricon (1968)\Satyricon by Polidoro, 1968.avi
Формат : AVI
Формат/Информация : Audio Video Interleave
Размер файла : 880 MiB
Продолжительность : 1h 48mn
Общий поток : 1 138 Kbps
Программа кодирования : VirtualDubMod 1.5.10.2 (build 2540/release)
Библиотека кодирования : VirtualDubMod build 2540/release
Video
Идентификатор : 0
Формат : MPEG-4 Visual
Параметр BVOP формата : 1
Параметр QPel формата : No
Параметр GMC формата : No warppoints
Параметр матрицы формата : Default (H.263)
Режим смешивания : Packed bitstream
Идентификатор кодека : DX50
Идентификатор кодека/Подсказка : DivX 5
Продолжительность : 1h 48mn
Битрейт : 1 000 Kbps
Ширина : 688 pixels
Высота : 384 pixels
Соотношение сторон : 16:9
Частота кадров : 25.000 fps
Цветовое пространство : YUV
Субдискретизация насыщенности : 4:2:0
Битовая глубина : 8 bits
Тип развёртки : Progressive
Метод сжатия : Lossy
Бит/(Пиксели*Кадры) : 0.151
Размер потока : 773 MiB (88%)
Библиотека кодирования : DivX 6.8.5 (UTC 2009-08-20)
Audio
Идентификатор : 1
Формат : MPEG Audio
Версия формата : Version 1
Профиль формата : Layer 3
Режим : Joint stereo
Расширение режима : MS Stereo
Идентификатор кодека : 55
Идентификатор кодека/Подсказка : MP3
Продолжительность : 1h 48mn
Вид битрейта : Constant
Битрейт : 128 Kbps
Каналы : 2 channels
Частота : 44.1 KHz
Метод сжатия : Lossy
Размер потока : 99.0 MiB (11%)
Выравнивание : Split accross interleaves
Продолжительность промежутка : 40 ms (1.00 video frame)
Время предзагрузки промежутка : 500 ms
Библиотека кодирования : LAME3.98.3ЄЄЄ

Скриншот c названием фильма

Пример субтитров

964
01:16:28,950 --> 01:16:30,950
- Так он не умер?
- Нет...
965
01:16:31,762 --> 01:16:36,062
Каждый день он просыпается, ест, пьет,
занимается любовью, напивается...
966
01:16:36,302 --> 01:16:40,082
...а потом умирает, как если бы каждый день
был последним в его жизни.
967
01:16:40,285 --> 01:16:42,055
А как же его завещание?
968
01:16:42,060 --> 01:16:44,495
Завтра он порвёт его на куски
и составит новое.
969
01:16:44,500 --> 01:16:46,900
Так продолжается уже 12 лет.
970
01:17:00,070 --> 01:17:04,450
Дни сверкают, как молнии.
Не упеешь оглянуться...
971
01:17:04,455 --> 01:17:06,245
... и наступила ночь.
972
01:17:06,450 --> 01:17:13,250
Тебя, Трималхион, которого ежедневно
переносят из кровати в триклиний,
973
01:17:13,770 --> 01:17:20,270
...сегодня несут из
триклиния на смертное ложе!
974
01:17:22,950 --> 01:17:29,420
В Кумах я видел бессмертную Сивиллу,
заключенную в стеклянной бутылке.
975
01:17:30,025 --> 01:17:33,600
Я спросил ее:
"Что ты хочешь?"
976
01:17:34,005 --> 01:17:37,855
А Сивилла ответила:
"Я хочу умереть".
977
01:17:39,255 --> 01:17:45,605
Сейчас мы сожжем твое тело
и погасим останки вином!
978
01:17:46,500 --> 01:17:51,350
Лучшим фалернским вином из
твоих виноградников! Очень вкусным...
979
01:17:53,500 --> 01:17:58,700
Но сначала мы отрежем один из твоих пальцев...
как требуют традиции.
980
01:17:59,250 --> 01:18:02,050
Прощай, друг!
Прощай!
981
01:18:04,000 --> 01:18:07,200
- Мой Трималхион!
- Почему он оставил нас?
982
01:18:08,790 --> 01:18:14,800
Теперь все целуйте вашего
любимого Трималхиона. По очереди!
983
01:18:22,780 --> 01:18:24,280
По очереди.
Музыка из фильма:

To download the content you need:
1. Download and install torrent client [for Windows] or for mobile system
2. Click on [Download]
Attention.
If the test YOU are NOT a ROBOT - does not work, then You are using an outdated browser.
Install the current browser and click on [Download]
Security: torrent client is allowed by Kaspersky.

[en.asmlocator.ru].t3917.torrent 
Torrent: Registered [ 2015-11-30 05:45 ] · 6FD9D0A0F403EA6252686161943A86DE1964680E

Download .torrent

Download

18 KB

Status: checked
Completed: 0 times
Size: 880 MB
terms.php
[Profile] [PM]
Display posts:    
Reply to topic

Current time is: 12-Dec 19:55

All times are UTC ± 0



You cannot post new topics in this forum
You cannot reply to topics in this forum
You cannot edit your posts in this forum
You cannot delete your posts in this forum
You cannot vote in polls in this forum
You cannot attach files in this forum
You can download files in this forum
Верим фактам, а не вранью Путина! Факт, что Правительство ведёт Россию к истреблению.
Так как численность населения падает, даже не смотря на приток эмигрантов!
Русская нация вымирает и вырождается, смешиваясь с эмигрантами!
Факт, что военных и граждан предприятий заставляют голосовать за партию Единая Россия и Путина
ПОД СТРАХОМ УВОЛЬНЕНИЯ!
Нам не нужно Правительство, блокирующее личную жизнь, интернет, нарушающее сохранность данных.
Все эти действия финансируются за счёт народа!