Ужас Тролленберга / Ползучий глаз / The Trollenberg Terror / The Crawling Eye (Квентин Лоуренс / Quentin Lawrence) [1958, Великобритания, фантастика, хоррор, приключения, триллер, DVDRip] VO (SATKUR) + Sub Rus + Original Eng

Reply to topic
DL-List and Torrent activity
Size:  900 MB   |    Registered:  4 years   |    Completed:  0 times

Seeder not seen: Never

 
   
 
 
Author Message

star21 ®

Gender: Female

Longevity: 4 years 1 month

Posts: 551946

Location: Екатеринбург

Post 30-Nov-2015 05:48

[Quote]

Ужас Тролленберга / Ползучий глаз / The Trollenberg Terror / The Crawling Eye
Страна: Великобритания
Жанр: фантастика, хоррор, приключения, триллер
Год выпуска: 1958
Продолжительность: 01:23:57
Перевод: Одноголосый закадровый SATKUR
Cубтитры: русские
Оригинальная аудиодорожка: английский
Режиссер: Квентин Лоуренс / Quentin Lawrence
В ролях: Форрест Таккер, Лоуренс Пэйн, Дженнифер Джейн, Джанет Манро, Уоррен Митчелл, Фредерик Шиллер, Эндрю Фолдс, Стюарт Сондерс, Колин Дуглас, Дерек Сидни
Описание: По просьбе своего старого друга в небольшой городок в швейцарских Альпах прибывает ученый Алан Брукс. Профессор Креветт рассказывает, что в городке стали происходить очень странные события. Бесследно исчезают люди, после чего их обнаруживают обезглавленными. Дело в том, что аналогичные события происходили в Андах несколькими годами ранее, где в это время находились оба ученых. Профессор Креветт говорит, что над городком появляется загадочное облако. Тем временем пропадают еще несколько альпинистов. Девушка Анна, обладающая телепатическими способностями, говорит, что чувствует присутствие инопланетного разума высоко в горах. Она говорит, что пришельцы используют мертвые тела людей в своих целях. Тем временем на город быстро опускается огромное облако. Оно перекрывает дорогу, ведущую из города. Алан Брукс собирает людей и отправляет их в лабораторию профессора Креветта. Тем временем из облака появляются существа отвратительной формы, начинающие убивать людей. В конце концов, доктору Бруксу удается найти способ, которым можно уничтожить пришельцев. Им оказывается огонь…
(Мацнев Р.А.)
Доп. информация: Озвучено по субтитрам =VampirO=, источник
Сэмпл: http://multi-up.com/1061743
Качество видео: DVDRip
Формат видео: AVI
Видео: 704x432 (1.630), 23,976 fps, XviD build ~1100 kbps avg, 0.151 bit/pixel
Аудио 1: 48 kHz, AC3 Dolby Digital, 2/0 (L,R) ch, ~192.00 kbps - русский
Аудио 2: 48 kHz, AC3 Dolby Digital, 2/0 (L,R) ch, ~192.00 kbps - английский
Формат субтитров: softsub (SRT)

MediaInfo

Общее
Полное имя : F:\FILMY\FILM-2015\Disk-98\Ужас Троленберга\The.Trollenberg.Terror.1958.Eng.[vo.satkur+eng].AC3.Rus\The.Trollenberg.Terror.1958.Eng.[vo.satkur+eng].AC3.Rus.avi
Формат : AVI
Формат/Информация : Audio Video Interleave
Размер файла : 900 Мбайт
Продолжительность : 1 ч. 23 м.
Общий поток : 1498 Кбит/сек
Программа кодирования : VirtualDubModRus 1.5.10.2 (build 2542/release)
Библиотека кодирования : VirtualDubMod build 2542/release
Видео
Идентификатор : 0
Формат : MPEG-4 Visual
Профиль формата : Advanced Simple@L5
Параметр BVOP формата : 2
Параметр QPel формата : Нет
Параметр GMC формата : Без точки перехода
Параметр матрицы формата : Default (H.263)
Идентификатор кодека : XVID
Идентификатор кодека/Подсказка : XviD
Продолжительность : 1 ч. 23 м.
Битрейт : 1100 Кбит/сек
Ширина : 704 пикселя
Высота : 432 пикселя
Соотношение сторон : 1,630
Частота кадров : 23,976 кадра/сек
Цветовое пространство : YUV
Субдискретизация насыщенности : 4:2:0
Битовая глубина : 8 бит
Тип развёртки : Прогрессивная
Метод сжатия : С потерями
Бит/(Пиксели*Кадры) : 0.151
Размер потока : 660 Мбайт (73%)
Библиотека кодирования : XviD 1.2.0.dev47 (UTC 2006-11-01)
Аудио #1
Идентификатор : 1
Формат : AC-3
Формат/Информация : Audio Coding 3
Расширение режима : CM (complete main)
Параметр Endianness формата : Big
Идентификатор кодека : 2000
Продолжительность : 1 ч. 23 м.
Вид битрейта : Постоянный
Битрейт : 192 Кбит/сек
Каналы : 2 канала
Расположение каналов : Front: L R
Частота : 48,0 КГц
Битовая глубина : 16 бит
Метод сжатия : С потерями
Размер потока : 115 Мбайт (13%)
Выравнивание : Разделение по промежуткам
Продолжительность промежутка : 42 мс. (1,00 видеокадр)
Время предзагрузки промежутка : 500 мс.
Аудио #2
Идентификатор : 2
Формат : AC-3
Формат/Информация : Audio Coding 3
Расширение режима : CM (complete main)
Параметр Endianness формата : Big
Идентификатор кодека : 2000
Продолжительность : 1 ч. 23 м.
Вид битрейта : Постоянный
Битрейт : 192 Кбит/сек
Каналы : 2 канала
Расположение каналов : Front: L R
Частота : 48,0 КГц
Битовая глубина : 16 бит
Метод сжатия : С потерями
Размер потока : 115 Мбайт (13%)
Выравнивание : Разделение по промежуткам
Продолжительность промежутка : 42 мс. (1,00 видеокадр)
Время предзагрузки промежутка : 500 мс.

Скриншот c названием фильма

Скриншоты

To download the content you need:
1. Download and install torrent client [for Windows] or for mobile system
2. Click on [Download]
Attention.
If the test YOU are NOT a ROBOT - does not work, then You are using an outdated browser.
Install the current browser and click on [Download]
Security: torrent client is allowed by Kaspersky.

[en.asmlocator.ru].t3916.torrent 
Torrent: Registered [ 2015-11-30 05:45 ] · 708CFD90D332D3D1458F7A725A5A090C32E62239

Download .torrent

Download

18 KB

Status: checked
Completed: 0 times
Size: 900 MB
terms.php
[Profile] [PM]
Display posts:    
Reply to topic

Current time is: 14-Dec 20:30

All times are UTC ± 0



You cannot post new topics in this forum
You cannot reply to topics in this forum
You cannot edit your posts in this forum
You cannot delete your posts in this forum
You cannot vote in polls in this forum
You cannot attach files in this forum
You can download files in this forum
Верим фактам, а не вранью Путина! Факт, что Правительство ведёт Россию к истреблению.
Так как численность населения падает, даже не смотря на приток эмигрантов!
Русская нация вымирает и вырождается, смешиваясь с эмигрантами!
Факт, что военных и граждан предприятий заставляют голосовать за партию Единая Россия и Путина
ПОД СТРАХОМ УВОЛЬНЕНИЯ!
Нам не нужно Правительство, блокирующее личную жизнь, интернет, нарушающее сохранность данных.
Все эти действия финансируются за счёт народа!