Рабыни из Карфагена / Le schiave di Cartagine (Гуидо Бриньоне / Guido Brignone) [1956 г., Италия, Мексика, Испания, Исторический, DVDRip] VO

Reply to topic
DL-List and Torrent activity
Size:  731 MB   |    Registered:  4 years   |    Completed:  0 times

Seeder not seen: Never

 
   
 
 
Author Message

star21 ®

Gender: Female

Longevity: 4 years 1 month

Posts: 551946

Location: Екатеринбург

Post 30-Nov-2015 05:48

[Quote]

Рабыни из Карфагена / Le schiave di Cartagine
Страна: Италия, Мексика, Испания
Жанр: Исторический
Год выпуска: 1956
Продолжительность: 01:30:56
Перевод: Одноголосый закадровый - Kolobroad
Cубтитры: нет
Оригинальная аудиодорожка: нет
Режиссер: Гуидо Бриньоне / Guido Brignone
В ролях: Джанна Мария Канале, Хорхе Мистраль, Мариза Аллазио, Ана Луиза Пелуффо, Рубен Рохо, Луиджи Павезе, Херман Кобос, Рикардо Валле, Нандо Тамберлани, Альберт Хен
Описание: В дом римского проконсула в городе Тарс, что в малоазиатской провинции Киликия, попадают две рабыни-христианки, сёстры Лия и Эстер, девушки благородного происхождения, родом из далёкого Карфагена.
Дочь проконсула Юлия Марсия третирует Лию, ревнуя ее к трибуну Марку Валерию, который оказывает покровительство несчастной девушке.
А тем временем местный олигарх Публий Корнелий, стремясь поставить у власти в провинции свою марионетку Флавия Метелла, организует политическое убийство, ответственность за которое сваливает на христиан...
Доп. информация: Рип сделан с этого исходника:
Сэмпл: https://www.sendspace.com/file/2uicdi
Качество видео: DVDRip
Формат видео: AVI
Видео: 922 Кбит/сек, 704*304 (2,35:1), 25,000 кадров/сек, XviD
Аудио: Русский, 192 Кбит/сек, 48,0 КГц, 2 канала, AC-3

MediaInfo

ОбщееПолное имя                               : N:\MONAR.RU\Художественные фильмы\Зарубежное кино\Рабыни из Карфагена (1956).aviФормат                                   : AVIФормат/Информация                        : Audio Video InterleaveРазмер файла                             : 731 МбайтПродолжительность                        : 1 ч. 30 м.Общий поток                              : 1123 Кбит/сек
ВидеоИдентификатор : 0Формат : MPEG-4 VisualПрофиль формата : Advanced Simple@L5Параметр BVOP формата : 2Параметр QPel формата : НетПараметр GMC формата : Без точки переходаПараметр матрицы формата : ВыборочнаяИдентификатор кодека : XVIDИдентификатор кодека/Подсказка : XviDПродолжительность : 1 ч. 30 м.Битрейт : 922 Кбит/секШирина : 704 пикселяВысота : 304 пикселяСоотношение сторон : 2,35:1Частота кадров : 25,000 кадров/секЦветовое пространство : YUVСубдискретизация насыщенности : 4:2:0Битовая глубина : 8 битТип развёртки : ПрогрессивнаяМетод сжатия : С потерямиБит/(Пиксели*Кадры) : 0.172Размер потока : 599 Мбайт (82%)Библиотека кодирования : XviD 1.2.1 (UTC 2008-12-04)
АудиоИдентификатор : 1Формат : AC-3Формат/Информация : Audio Coding 3Расширение режима : CM (complete main)Параметр Endianness формата : BigИдентификатор кодека : 2000Продолжительность : 1 ч. 30 м.Продолжительность оригинала : 1 ч. 30 м.Вид битрейта : ПостоянныйБитрейт : 192 Кбит/секКаналы : 2 каналаРасположение каналов : Front: L RЧастота : 48,0 КГцБитовая глубина : 16 битМетод сжатия : С потерямиРазмер потока : 125 Мбайт (17%)Выравнивание : Соединение по промежуткамПродолжительность промежутка : 40 мс. (1,00 видеокадр)

Скриншот c названием фильма

Скриншоты

To download the content you need:
1. Download and install torrent client [for Windows] or for mobile system
2. Click on [Download]
Attention.
If the test YOU are NOT a ROBOT - does not work, then You are using an outdated browser.
Install the current browser and click on [Download]
Security: torrent client is allowed by Kaspersky.

[en.asmlocator.ru].t3913.torrent 
Torrent: Registered [ 2015-11-30 05:45 ] · 42DFE667938A4542771BF51FEE9AEF5A6DAB6627

Download .torrent

Download

15 KB

Status: checked
Completed: 0 times
Size: 731 MB
terms.php
[Profile] [PM]
Display posts:    
Reply to topic

Current time is: 08-Dec 16:42

All times are UTC ± 0



You cannot post new topics in this forum
You cannot reply to topics in this forum
You cannot edit your posts in this forum
You cannot delete your posts in this forum
You cannot vote in polls in this forum
You cannot attach files in this forum
You can download files in this forum
Верим фактам, а не вранью Путина! Факт, что Правительство ведёт Россию к истреблению.
Так как численность населения падает, даже не смотря на приток эмигрантов!
Русская нация вымирает и вырождается, смешиваясь с эмигрантами!
Факт, что военных и граждан предприятий заставляют голосовать за партию Единая Россия и Путина
ПОД СТРАХОМ УВОЛЬНЕНИЯ!
Нам не нужно Правительство, блокирующее личную жизнь, интернет, нарушающее сохранность данных.
Все эти действия финансируются за счёт народа!