Мистер Мото в отпуске / Mr. Moto Takes a Vacation (Норман Фостер / Norman Foster) [1939, США, криминал, детектив, приключения, DVDRip] VO (SATKUR) + Sub Rus + Original Eng

Reply to topic
DL-List and Torrent activity
Size:  871 MB   |    Registered:  4 years   |    Completed:  0 times

Seeder not seen: 1 year 2 months

 
   
 
 
Author Message

star21 ®

Gender: Female

Longevity: 4 years 1 month

Posts: 551946

Location: Екатеринбург

Post 30-Nov-2015 05:48

[Quote]

Мистер Мото в отпуске / Mr. Moto Takes a Vacation
Страна: США
Жанр: криминал, детектив, приключения
Год выпуска: 1939
Продолжительность: 1:02:36
Перевод: Одноголосый закадровый SATKUR
Cубтитры: русские
Оригинальная аудиодорожка: английский
Режиссер: Норман Фостер / Norman Foster
В ролях: Peter Lorre / Питер Лорре ... мистер Мото
Joseph Schildkraut / Йозеф Шильдкраут ... Генрик Мэндерсон
Lionel Atwill / Лайонел Этвилл ... профессор Хильдебранд
Virginia Field / Вирджиния Филд ... Элеонора Кирк
John King / Джон Кинг ... Говард Стивенс
Iva Stewart / Ива Стюарт ... Сьюзан Френч
G.P. Huntley / Дж.П. Хантли ... Арчи Фезерстоун
Victor Varconi / Виктор Варкони ... Павел Бородов
Описание: Сан-Франциско, наши дни. В музей "Фремон" прибывает ценнейший артефакт - корона царицы Савской, недавно найденная в ходе раскопок. Куратор музея, напыщенный профессор Хильдебранд, и спонсор экспедиции, престарелый Генрик Мэндерсон, беспокоятся о судьбе короны: на бесценную реликвию положили глаз бандиты и воры всех мастей, - однако охранять сокровище будет не кто иной, как мистер Мото, агент интерпола и великий японский сыщик. Его цель - словить маньяка-клептомана и гения преступного мира, неуловимого Метаксу, который непременно рискнет украсть реликвию. Под чьей личиной скрылся легендарный вор?..
***
Трио "Питер Лорре - Лайонел Этвилл - Йозеф Шильдкраут" имеет своим истоком шпионскую комедию 1937 года Lancer Spy, главную роль в которой исполнил Джордж Сандерс - позже сыграв злодея в еще одном фильме о мистере Мото, Mr. Moto's Last Warning (1939). Лайонел Этвилл и Йозеф Шильдкраут также снялись вместе в "Трех мушкетерах" 1939 года выпуска, исполнив графа Рошфора и короля Людовика.
Доп. информация: Озвучено по субтитрам Conrad_Siegfried aka Marti, источник
Сэмпл: http://multi-up.com/1063694
Качество видео: DVDRip
Формат видео: AVI
Видео: XviD, 640x480, 23.976 fps, 1546 кбит/с
Аудио 1: 48 kHz, AC3 Dolby Digital, 2/0 (L,R) ch, ~192.00 kbps - русский
Аудио 2: 48 kHz, AC3 Dolby Digital, 2/0 (L,R) ch, ~192.00 kbps - английский
Формат субтитров: softsub (SRT)

MediaInfo

Общее
Полное имя : F:\FILMY\FILM-2015\Disk-100\ММото в отпуске\Mr.Moto.Takes.a.Vacation.1939.USA.[vo.satkur+eng].AC3.Rus\Mr.Moto.Takes.a.Vacation.1939.USA.[vo.satkur+eng].AC3.Rus.avi
Формат : AVI
Формат/Информация : Audio Video Interleave
Размер файла : 871 Мбайт
Продолжительность : 1 ч. 2 м.
Общий поток : 1944 Кбит/сек
Программа кодирования : VirtualDubModRus 1.5.10.2 (build 2542/release)
Библиотека кодирования : VirtualDubMod build 2542/release
Видео
Идентификатор : 0
Формат : MPEG-4 Visual
Профиль формата : Advanced Simple@L5
Параметр BVOP формата : 1
Параметр QPel формата : Нет
Параметр GMC формата : Без точки перехода
Параметр матрицы формата : Выборочная
Идентификатор кодека : XVID
Идентификатор кодека/Подсказка : XviD
Продолжительность : 1 ч. 2 м.
Битрейт : 1546 Кбит/сек
Ширина : 640 пикселей
Высота : 480 пикселей
Соотношение сторон : 4:3
Частота кадров : 23,976 кадра/сек
Цветовое пространство : YUV
Субдискретизация насыщенности : 4:2:0
Битовая глубина : 8 бит
Тип развёртки : Прогрессивная
Метод сжатия : С потерями
Бит/(Пиксели*Кадры) : 0.210
Размер потока : 692 Мбайт (80%)
Библиотека кодирования : XviD 1.2.0.dev47 (UTC 2006-11-01)
Аудио #1
Идентификатор : 1
Формат : AC-3
Формат/Информация : Audio Coding 3
Расширение режима : CM (complete main)
Параметр Endianness формата : Big
Идентификатор кодека : 2000
Продолжительность : 1 ч. 2 м.
Вид битрейта : Постоянный
Битрейт : 192 Кбит/сек
Каналы : 2 канала
Расположение каналов : Front: L R
Частота : 48,0 КГц
Битовая глубина : 16 бит
Метод сжатия : С потерями
Размер потока : 86,0 Мбайт (10%)
Выравнивание : Разделение по промежуткам
Продолжительность промежутка : 42 мс. (1,00 видеокадр)
Время предзагрузки промежутка : 500 мс.
Язык : English
Аудио #2
Идентификатор : 2
Формат : AC-3
Формат/Информация : Audio Coding 3
Расширение режима : CM (complete main)
Параметр Endianness формата : Big
Идентификатор кодека : 2000
Продолжительность : 1 ч. 2 м.
Вид битрейта : Постоянный
Битрейт : 192 Кбит/сек
Каналы : 2 канала
Расположение каналов : Front: L R
Частота : 48,0 КГц
Битовая глубина : 16 бит
Метод сжатия : С потерями
Размер потока : 86,0 Мбайт (10%)
Выравнивание : Разделение по промежуткам
Продолжительность промежутка : 42 мс. (1,00 видеокадр)
Время предзагрузки промежутка : 500 мс.

Скриншот c названием фильма

Скриншоты

To download the content you need:
1. Download and install torrent client [for Windows] or for mobile system
2. Click on [Download]
Attention.
If the test YOU are NOT a ROBOT - does not work, then You are using an outdated browser.
Install the current browser and click on [Download]
Security: torrent client is allowed by Kaspersky.

[en.asmlocator.ru].t3912.torrent 
Torrent: Registered [ 2015-11-30 05:45 ] · 0AC8591D22391F648030A7E03D3075E4697CC538

Download .torrent

Download

18 KB

Status: checked
Completed: 0 times
Size: 871 MB
terms.php
[Profile] [PM]
Display posts:    
Reply to topic

Current time is: 08-Dec 15:10

All times are UTC ± 0



You cannot post new topics in this forum
You cannot reply to topics in this forum
You cannot edit your posts in this forum
You cannot delete your posts in this forum
You cannot vote in polls in this forum
You cannot attach files in this forum
You can download files in this forum
Верим фактам, а не вранью Путина! Факт, что Правительство ведёт Россию к истреблению.
Так как численность населения падает, даже не смотря на приток эмигрантов!
Русская нация вымирает и вырождается, смешиваясь с эмигрантами!
Факт, что военных и граждан предприятий заставляют голосовать за партию Единая Россия и Путина
ПОД СТРАХОМ УВОЛЬНЕНИЯ!
Нам не нужно Правительство, блокирующее личную жизнь, интернет, нарушающее сохранность данных.
Все эти действия финансируются за счёт народа!