Человек на коленях / Un uomo in ginocchio (Дамиано Дамиани / Damiano Damiani) [1979, Италия, триллер, криминал, драма, DVDRip] MVO (ТРК "Петербург - 5 канал")

Reply to topic
DL-List and Torrent activity
Size:  1.46 GB   |    Registered:  4 years   |    Completed:  0 times

Seeder not seen: 1 year 4 months

 
   
 
 
Author Message

star21 ®

Gender: Female

Longevity: 4 years 1 month

Posts: 551946

Location: Екатеринбург

Post 30-Nov-2015 05:48

[Quote]

Человек на коленях / Un uomo in ginocchio Страна: Италия
Жанр: триллер, криминал, драма
Год выпуска: 1979
Продолжительность: 01:45:38
Перевод: Профессиональный (многоголосый закадровый) ТРК "Петербург - 5 канал"
Текст читали: Алексей Гурьев, Андрей Тенетко, Александра Кожевникова
Cубтитры: нет
Оригинальная аудиодорожка: нет
Режиссер: Дамиано Дамиани / Damiano Damiani
В ролях: Джулиано Джемма, Элеонора Джорджи, Микеле Плачидо, Тано Чимароза, Этторе Манни, Лучано Катеначчи, Нелло Паццафини, Надзарено Дзамперла, Джанпаоло Саккарола, Родольфо Биготти, Альба Майолини, Франческо Транкина, Джованни Джанконо, Андреа Аурели, Фабрицио Джовине, Норберт Лош, Оттавиано Делль'Аква
Описание: После двух лет в тюрьме угонщик машин Нино Перальта (Джулиано Джемма) решил «завязать». Припрятанная «заначка» позволила ему открыть собственный бизнес — крошечный продуктовый киоск. Но в колыбели итальянской мафии, Палермо, невозможно остаться в стороне от криминальных разборок. В ходе войны двух конкурирующих мафиозных кланов бедолага Нино по досадной ошибке оказался в списке приговоренных к смерти. На Сицилии издавна правит закон «омерты» — круговой поруки молчания: обращаться в полицию — нельзя, просить пощады у безжалостных донов — бесполезно…
Доп. информация: Русская дорога из моей личной коллекции. Работа со звуком alex7691.
Сэмпл: http://multi-up.com/1063755
Качество видео: DVDRip
Спасибо
Формат видео: AVI
Видео: XviD, 688x416 (4:3), 25.000 fps, 1772 kbps avg
Аудио: Russian AC3 Dolby Digital, 48 kHz, 2/0 (L,R) ch, 192.00 kbps avg (5 канал СПБ)

MediaInfo

General
Complete name : E:\Un uomo in ginocchio_1979\Un uomo in ginocchio.1979.DVDRip.MVO.5 kanal SPb.avi
Format : AVI
Format/Info : Audio Video Interleave
File size : 1.46 GiB
Duration : 1h 45mn
Overall bit rate : 1 974 Kbps
Director : zim2001
Writing application : VirtualDubModRus 1.5.10.2 (build 2542/release)
Writing library : VirtualDubMod build 2542/release
Video
ID : 0
Format : MPEG-4 Visual
Format profile : Advanced Simple@L5
Format settings, BVOP : 2
Format settings, QPel : No
Format settings, GMC : No warppoints
Format settings, Matrix : Custom
Codec ID : XVID
Codec ID/Hint : XviD
Duration : 1h 45mn
Bit rate : 1 772 Kbps
Width : 688 pixels
Height : 416 pixels
Display aspect ratio : 5:3
Frame rate : 25.000 fps
Color space : YUV
Chroma subsampling : 4:2:0
Bit depth : 8 bits
Scan type : Progressive
Compression mode : Lossy
Bits/(Pixel*Frame) : 0.248
Stream size : 1.31 GiB (90%)
Writing library : XviD 56
Audio
ID : 1
Format : AC-3
Format/Info : Audio Coding 3
Mode extension : CM (complete main)
Format settings, Endianness : Big
Codec ID : 2000
Duration : 1h 45mn
Bit rate mode : Constant
Bit rate : 192 Kbps
Channel(s) : 2 channels
Channel positions : Front: L R
Sampling rate : 48.0 KHz
Compression mode : Lossy
Stream size : 145 MiB (10%)
Alignment : Split accross interleaves
Interleave, duration : 40 ms (1.00 video frame)
Interleave, preload duratio : 500 ms

Скриншоты

To download the content you need:
1. Download and install torrent client [for Windows] or for mobile system
2. Click on [Download]
Attention.
If the test YOU are NOT a ROBOT - does not work, then You are using an outdated browser.
Install the current browser and click on [Download]
Security: torrent client is allowed by Kaspersky.

[en.asmlocator.ru].t3909.torrent 
Torrent: Registered [ 2015-11-30 05:45 ] · 90B7B45414056FD54D2148A295E82664D883C3B7

Download .torrent

Download

15 KB

Status: checked
Completed: 0 times
Size: 1.46 GB
terms.php
[Profile] [PM]
Display posts:    
Reply to topic

Current time is: 14-Dec 23:57

All times are UTC ± 0



You cannot post new topics in this forum
You cannot reply to topics in this forum
You cannot edit your posts in this forum
You cannot delete your posts in this forum
You cannot vote in polls in this forum
You cannot attach files in this forum
You can download files in this forum
Верим фактам, а не вранью Путина! Факт, что Правительство ведёт Россию к истреблению.
Так как численность населения падает, даже не смотря на приток эмигрантов!
Русская нация вымирает и вырождается, смешиваясь с эмигрантами!
Факт, что военных и граждан предприятий заставляют голосовать за партию Единая Россия и Путина
ПОД СТРАХОМ УВОЛЬНЕНИЯ!
Нам не нужно Правительство, блокирующее личную жизнь, интернет, нарушающее сохранность данных.
Все эти действия финансируются за счёт народа!