Дилижанс / Stagecoach (Джон Форд / John Ford) [1939, США, вестерн, BDRip] DVO ("Позитив") + Original Eng

Reply to topic
DL-List and Torrent activity
Size:  1.37 GB   |    Registered:  4 years   |    Completed:  1 time

Seeder not seen: 1 month 23 days

 
   
 
 
Author Message

star21 ®

Gender: Female

Longevity: 4 years 1 month

Posts: 551946

Location: Екатеринбург

Post 30-Nov-2015 05:48

[Quote]

Дилижанс / Stagecoach
Страна: США
Жанр: вестерн
Год выпуска: 1939
Продолжительность: 01:36:10
Перевод: Профессиональный (двухголосый закадровый) "Позитив"
Текст читали: Игорь Тарадайкин, Наталья Казначеева
Cубтитры: нет
Оригинальная аудиодорожка: английский
Режиссер: Джон Форд / John Ford
В ролях: Клэр Тревор, Джон Уэйн, Энди Дивайн, Джон Каррадайн, Томас Митчелл, Луиза Платт, Джордж Бэнкрофт, Доналд Мик, Бертон Черчилль, Тим Холт, Том Тайлер, Тед Биллингс, Эдвард Брэйди (III), Фрицци Брунетт, Якима Канутт, Франклин Фарнум, Френсис Форд, Хелен Гибсон, Роберт Хоманс, Уильям Хоппер, Си Дженкс, Хэрри Тенбрук, Хэнк Уорден
Описание: Основан на новелле Эрнеста Хейкокса «Карета в Лордсбург». В 1880 год. Готовясь к плановой поездке на дилижансе из городка Тонто, территория Аризона, в местечко Лордсбург, территория Нью-Мексико, Бак (Энди Дивайн) получает известие, что вождь апачей Джеронимо вышел на тропу войны, и просит сопровождать его в пути маршала Кёрли Уилкокса (Джордж Бэнкрофт). Он честно предупреждает пассажиров - беременную жену офицера Люси Мэллори (Луиза Платт), сильно пьющего доктора Дока Буна (Томас Митчелл, премия «Оскар»), карточного игрока Хэтфилда (Джон Каррадайн), торговца виски Сэмюэла Пикока (Дональд Мик) и проститутку по имени Даллас (Клэр Тревор), изгнанную из города членами «Лиги закона и порядка», о грозящей опасности. Последним пассажиром дилижанса становится бесстрашный Ринго Кид (Джон Уэйн), которого маршал должен задержать и сопроводить в тюрьму...
Доп. информация: Собственный рип. Русская дорога Позитив из моей личной коллекции. Работа со звуком alex7691.
Сэмпл: http://multi-up.com/1063772
Качество видео: BDRip
Формат видео: AVI
Видео: XviD, 720x528 (4:3), 23.976 fps, 1639 kbps avg
Аудио: Russian AC3 Dolby Digital, 48 kHz, 2/0 (L,R) ch, 192.00 kbps avg
Аудио 2: English AC3 Dolby Digital, 48 kHz, 1/0 ch, 192.00 kbps avg

MediaInfo

General
Complete name : E:\Stagecoach.1939\Stagecoach.1939.BDRip.MVO.Pozitiv.avi
Format : AVI
Format/Info : Audio Video Interleave
File size : 1.37 GiB
Duration : 1h 36mn
Overall bit rate : 2 037 Kbps
Writing application : VirtualDubModRus 1.5.10.2 (build 2542/release)
Writing library : VirtualDubMod build 2542/release
Video
ID : 0
Format : MPEG-4 Visual
Format profile : Advanced Simple@L5
Format settings, BVOP : 1
Format settings, QPel : No
Format settings, GMC : No warppoints
Format settings, Matrix : Default (MPEG)
Codec ID : XVID
Codec ID/Hint : XviD
Duration : 1h 36mn
Bit rate : 1 639 Kbps
Width : 720 pixels
Height : 528 pixels
Display aspect ratio : 4:3
Frame rate : 23.976 fps
Color space : YUV
Chroma subsampling : 4:2:0
Bit depth : 8 bits
Scan type : Progressive
Compression mode : Lossy
Bits/(Pixel*Frame) : 0.180
Stream size : 1.10 GiB (80%)
Writing library : XviD 73
Audio #1
ID : 1
Format : AC-3
Format/Info : Audio Coding 3
Mode extension : CM (complete main)
Format settings, Endianness : Big
Codec ID : 2000
Duration : 1h 36mn
Bit rate mode : Constant
Bit rate : 192 Kbps
Channel(s) : 2 channels
Channel positions : Front: L R
Sampling rate : 48.0 KHz
Bit depth : 16 bits
Compression mode : Lossy
Stream size : 132 MiB (9%)
Alignment : Split accross interleaves
Interleave, duration : 42 ms (1.00 video frame)
Interleave, preload duration : 500 ms
Audio #2
ID : 2
Format : AC-3
Format/Info : Audio Coding 3
Mode extension : CM (complete main)
Format settings, Endianness : Big
Codec ID : 2000
Duration : 1h 36mn
Bit rate mode : Constant
Bit rate : 192 Kbps
Channel(s) : 1 channel
Channel positions : Front: C
Sampling rate : 48.0 KHz
Bit depth : 16 bits
Compression mode : Lossy
Stream size : 132 MiB (9%)
Alignment : Split accross interleaves
Interleave, duration : 42 ms (1.00 video frame)
Interleave, preload duration : 500 ms

Скриншоты

To download the content you need:
1. Download and install torrent client [for Windows] or for mobile system
2. Click on [Download]
Attention.
If the test YOU are NOT a ROBOT - does not work, then You are using an outdated browser.
Install the current browser and click on [Download]
Security: torrent client is allowed by Kaspersky.

[en.asmlocator.ru].t3906.torrent 
Torrent: Registered [ 2015-11-30 05:45 ] · F70F548BEA673179778395EEC9D019C3582F59F5

Download .torrent

Download

14 KB

Status: checked
Completed: 1 times
Size: 1.37 GB
terms.php
[Profile] [PM]
Display posts:    
Reply to topic

Current time is: 12-Dec 18:22

All times are UTC ± 0



You cannot post new topics in this forum
You cannot reply to topics in this forum
You cannot edit your posts in this forum
You cannot delete your posts in this forum
You cannot vote in polls in this forum
You cannot attach files in this forum
You can download files in this forum
Верим фактам, а не вранью Путина! Факт, что Правительство ведёт Россию к истреблению.
Так как численность населения падает, даже не смотря на приток эмигрантов!
Русская нация вымирает и вырождается, смешиваясь с эмигрантами!
Факт, что военных и граждан предприятий заставляют голосовать за партию Единая Россия и Путина
ПОД СТРАХОМ УВОЛЬНЕНИЯ!
Нам не нужно Правительство, блокирующее личную жизнь, интернет, нарушающее сохранность данных.
Все эти действия финансируются за счёт народа!