Де Сад / De Sade / Das ausschweifende Leben des Marquis de Sade (Сай Эндфилд / Cy Endfield, Роджер Корман / Roger Corman) [1969, ФРГ, США, драма, DVDRip] VO (den904)

Reply to topic
DL-List and Torrent activity
Size:  745 MB   |    Registered:  4 years   |    Completed:  0 times

Seeder not seen: Never

 
   
 
 
Author Message

star21 ®

Gender: Female

Longevity: 4 years 1 month

Posts: 551946

Location: Екатеринбург

Post 30-Nov-2015 05:47

[Quote]

Де Сад / De Sade / Das ausschweifende Leben des Marquis de Sade
Страна: ФРГ, США
Жанр: драма
Год выпуска: 1969
Продолжительность: 01:43:57
Перевод: Одноголосый закадровый den904
Cубтитры: нет
Режиссер: Сай Эндфилд / Cy Endfield, Роджер Корман / Roger Corman
В ролях: Кир Дулли, Зента Бергер, Джон Хьюстон, Лилли Пальмер, Анна Мэсси, Соня Циманн, Кристиан Крюгер, Ута Левка, Барбара Станек, Сюзанна фон Алмасси, Фридрих Шёнфельдер, Герберт Вайсбах, Гейнц Шпитцнер, Тилли Лауенштайн, Ортруд Гросс
Описание: Правдивое резюме судьбы Луи Альфонса Донасьена, более известного как маркиз де Сад. Маркиз, находясь в заточении, вспоминает свое прошлое — как оно было в реальности и каким оно могло быть в воображаемых фэнтези-пьесах. На протяжении всей его жизни маркиза мучит призрак злодея-дяди, аббата де Сада. Воспитанный дядей с раннего возраста в духе сексуальной распущенности и жестокости, Луи по недоразумению женится на некрасивой, но преданной Рене де Монтрей, которую опекает её властная мать, полагая, что женится на её младшей, небесно красивой сестре Анне. Анна становится воплощением представлений маркиза о «моменте реальности» — навязчивой идее, которую он безуспешно пытается достичь на протяжении всей своей развратной жизни, игнорируя жену и компрометируя семью секс-скандалами с бессмысленными жестокостями. Периодически заключаемый под стражу и даже в тюрьму своими собственными родственниками, в конце концов он получает тяжкое обвинение в убийстве Анны, которая на самом деле умерла от чумы. Де Сад, став слабым старцем, который не может даже подняться с тюремной койки, всё еще не сломлен и ищет разгадку тайны своей жизни.
[imdb]http://www.imdb.com/title/tt0064212[/imdb]
Качество видео: DVDRip
Формат видео: AVI
Видео: 608x320 , 23.976 fps, XviD build 73 ~865 kbps avg, 0.185 bit/pixel
Аудио: 48 kHz, MPEG Layer 3, 2 ch, 128 kbps avgРелиз группы

MediaInfo

General
Complete name               : C:\Video\De Sade_1969DVDRip.avi
Format                      : AVI
Format/Info                 : Audio Video Interleave
File size                   : 745 MiB
Duration                    : 1h 43mn
Overall bit rate            : 1 002 Kbps
Writing application         : VirtualDubMod 1.5.10.3 | www.virtualdub-fr.org || (build 2550/release)
Writing library             : VirtualDubMod build 2550/release
Video
ID                          : 0
Format                      : MPEG-4 Visual
Format profile              : Advanced Simple@L5
Format settings, BVOP       : 2
Format settings, QPel       : No
Format settings, GMC        : No warppoints
Format settings, Matrix     : Default (H.263)
Codec ID                    : XVID
Codec ID/Hint               : XviD
Duration                    : 1h 43mn
Bit rate                    : 865 Kbps
Width                       : 608 pixels
Height                      : 320 pixels
Display aspect ratio        : 1.900
Frame rate                  : 23.976 fps
Color space                 : YUV
Chroma subsampling          : 4:2:0
Bit depth                   : 8 bits
Scan type                   : Progressive
Compression mode            : Lossy
Bits/(Pixel*Frame)          : 0.185
Stream size                 : 643 MiB (86%)
Writing library             : XviD 1.2.1 (UTC 2008-12-04)
Audio
ID                          : 1
Format                      : MPEG Audio
Format version              : Version 1
Format profile              : Layer 3
Codec ID                    : 55
Codec ID/Hint               : MP3
Duration                    : 1h 43mn
Bit rate mode               : Constant
Bit rate                    : 128 Kbps
Channel(s)                  : 2 channels
Sampling rate               : 48.0 KHz
Compression mode            : Lossy
Stream size                 : 95.2 MiB (13%)
Alignment                   : Aligned on interleaves
Interleave, duration        : 42 ms (1.00 video frame)
Interleave, preload duratio : 504 ms
Writing library             : LAME3.99r
Encoding settings           : -m s -V 4 -q 0 -lowpass 17 -b 128

Скриншот c названием фильма

Скриншоты

To download the content you need:
1. Download and install torrent client [for Windows] or for mobile system
2. Click on [Download]
Attention.
If the test YOU are NOT a ROBOT - does not work, then You are using an outdated browser.
Install the current browser and click on [Download]
Security: torrent client is allowed by Kaspersky.

[en.asmlocator.ru].t3905.torrent 
Torrent: Registered [ 2015-11-30 05:45 ] · 726978F48AA2105FB391966646A4CBB09E4FAEB8

Download .torrent

Download

15 KB

Status: checked
Completed: 0 times
Size: 745 MB
terms.php
[Profile] [PM]
Display posts:    
Reply to topic

Current time is: 14-Dec 21:09

All times are UTC ± 0



You cannot post new topics in this forum
You cannot reply to topics in this forum
You cannot edit your posts in this forum
You cannot delete your posts in this forum
You cannot vote in polls in this forum
You cannot attach files in this forum
You can download files in this forum
Верим фактам, а не вранью Путина! Факт, что Правительство ведёт Россию к истреблению.
Так как численность населения падает, даже не смотря на приток эмигрантов!
Русская нация вымирает и вырождается, смешиваясь с эмигрантами!
Факт, что военных и граждан предприятий заставляют голосовать за партию Единая Россия и Путина
ПОД СТРАХОМ УВОЛЬНЕНИЯ!
Нам не нужно Правительство, блокирующее личную жизнь, интернет, нарушающее сохранность данных.
Все эти действия финансируются за счёт народа!