Одноглазые валеты / One Eyed Jacks (Марлон Брандо / Marlon Brando) [1961, США, Вестерн, DVDRip] MVO + Sub Rus + Original Eng

Reply to topic
DL-List and Torrent activity
Size:  2.19 GB   |    Registered:  4 years   |    Completed:  0 times

Seeder not seen: 1 year 7 months

 
   
 
 
Author Message

star21 ®

Gender: Female

Longevity: 4 years 1 month

Posts: 551946

Location: Екатеринбург

Post 30-Nov-2015 05:47

[Quote]

Одноглазые валеты / One Eyed Jacks
-Страна: США
Жанр: Вестерн
Год выпуска: 1961
Продолжительность: 02:15:26-Перевод: Профессиональный (многоголосый закадровый)
Cубтитры: русские
Оригинальная аудиодорожка: английский-Режиссер: Марлон Брандо / Marlon Brando
В ролях: Марлон Брандо, Карл Молден, Кэти Джурадо, Пина Пеллисер, Бен Джонсон, Слим Пикенс, Ларри Дюран, Сэм Гилман, Тимоти Кэри, Мириам Колон-Описание: Рио и Папаша — бандиты. В 1880 году они грабят банк в Мексике, но уходить от погони им приходится на одной лошади. Понимая, что на одной лошади им не оторваться, Рио посылает Папашу найти вторую лошадь, пока он будет отстреливаться от отряда погони.
Папаша, однако, оставляет попытки найти вторую лошадь и уезжает прочь вместе с добычей. Рио, естественно, поймали, когда у него закончились патроны, и он попадает в тюрьму. Через пять лет зверского обращения пленнику удается бежать и снова встретиться с Папашей, все таким же вероломным и опасным человеком, но теперь ставшим шерифом в небольшом городке и живущим вместе с женой и падчерицей.
Папаша, конечно, понимает, что Рио приехал не для того, чтобы поздравить его с Днем Отца, и принимает меры, чтобы защититься от обуреваемого жаждой мести Рио.-Доп. информация: Режиссерский дебют Марлона Брандо. Брандо забрал фильм у Стэнли Кубрика после того, как они не смогли договориться о развитии персонажей.
Рип с этого-Сэмпл: http://multi-up.com/1063935-Качество видео: DVDRip
Формат видео: AVI
Видео: 688x368 (1.85:1), 25 fps, XviD build 67 ~1912 kbps avg, 0.302 bit/pixel bit/pixel
Аудио: AC3 Dolby Digital, 48 kHz, 192 kbps, 2 ch
Аудио 2: AC3 Dolby Digital, 48 kHz, 192 kbps, 2 ch
Формат субтитров: softsub (SRT)

MediaInfo

General
Complete name : D:\DVD One-Eyed Jacks\Одноглазые валеты (1961) by Crusstill+ Рип 2.18 gb\Одноглазые валеты (1961) by Crusstill+.avi
Format : AVI
Format/Info : Audio Video Interleave
Format profile : OpenDML
File size : 2.19 GiB
Duration : 2h 15mn
Overall bit rate : 2 314 Kbps
Writing application : VirtualDubMod 1.5.4.1 (build 2066/release)
Writing library : VirtualDubMod build 2066/release
Video
ID : 0
Format : MPEG-4 Visual
Format profile : Advanced Simple@L5
Format settings, BVOP : 1
Format settings, QPel : No
Format settings, GMC : No warppoints
Format settings, Matrix : Custom
Codec ID : XVID
Codec ID/Hint : XviD
Duration : 2h 15mn
Bit rate : 1 912 Kbps
Width : 688 pixels
Height : 368 pixels
Display aspect ratio : 1.85:1
Frame rate : 25.000 fps
Color space : YUV
Chroma subsampling : 4:2:0
Bit depth : 8 bits
Scan type : Progressive
Compression mode : Lossy
Bits/(Pixel*Frame) : 0.302
Stream size : 1.81 GiB (83%)
Writing library : XviD 67
Audio #1
ID : 1
Format : AC-3
Format/Info : Audio Coding 3
Mode extension : CM (complete main)
Format settings, Endianness : Big
Codec ID : 2000
Duration : 2h 15mn
Bit rate mode : Constant
Bit rate : 192 Kbps
Channel(s) : 2 channels
Channel positions : Front: L R
Sampling rate : 48.0 KHz
Compression mode : Lossy
Stream size : 186 MiB (8%)
Alignment : Split accross interleaves
Interleave, duration : 40 ms (1.00 video frame)
Interleave, preload duratio : 500 ms
Audio #2
ID : 2
Format : AC-3
Format/Info : Audio Coding 3
Mode extension : CM (complete main)
Format settings, Endianness : Big
Codec ID : 2000
Duration : 2h 15mn
Bit rate mode : Constant
Bit rate : 192 Kbps
Channel(s) : 2 channels
Channel positions : Front: L R
Sampling rate : 48.0 KHz
Compression mode : Lossy
Stream size : 186 MiB (8%)
Alignment : Split accross interleaves
Interleave, duration : 40 ms (1.00 video frame)
Interleave, preload duratio : 500 ms

Скриншоты

To download the content you need:
1. Download and install torrent client [for Windows] or for mobile system
2. Click on [Download]
Attention.
If the test YOU are NOT a ROBOT - does not work, then You are using an outdated browser.
Install the current browser and click on [Download]
Security: torrent client is allowed by Kaspersky.

[en.asmlocator.ru].t3902.torrent 
Torrent: Registered [ 2015-11-30 05:45 ] · FD518545633F5C22156FF7DEE4BAD3CA5417A348

Download .torrent

Download

12 KB

Status: checked
Completed: 0 times
Size: 2.19 GB
terms.php
[Profile] [PM]
Display posts:    
Reply to topic

Current time is: 12-Dec 02:41

All times are UTC ± 0



You cannot post new topics in this forum
You cannot reply to topics in this forum
You cannot edit your posts in this forum
You cannot delete your posts in this forum
You cannot vote in polls in this forum
You cannot attach files in this forum
You can download files in this forum
Верим фактам, а не вранью Путина! Факт, что Правительство ведёт Россию к истреблению.
Так как численность населения падает, даже не смотря на приток эмигрантов!
Русская нация вымирает и вырождается, смешиваясь с эмигрантами!
Факт, что военных и граждан предприятий заставляют голосовать за партию Единая Россия и Путина
ПОД СТРАХОМ УВОЛЬНЕНИЯ!
Нам не нужно Правительство, блокирующее личную жизнь, интернет, нарушающее сохранность данных.
Все эти действия финансируются за счёт народа!