Приключения Тиля Уленшпигеля / Les aventures de Till l\'Espiègle (Жерар Филип / Gérard Philipe, Йорис Ивенс / Joris Ivens) [1956, Франция, приключения, трагикомедия, исторический, DVDRip] DVO (LooDeniz и HeroyAsfalta) + Sub Rus + Original F

Reply to topic
DL-List and Torrent activity
Size:  1.46 GB   |    Registered:  4 years   |    Completed:  0 times

Seeder not seen: 3 years 3 months

 
   
 
 
Author Message

star21 ®

Gender: Female

Longevity: 4 years 1 month

Posts: 551946

Location: Екатеринбург

Post 30-Nov-2015 05:47

[Quote]

Приключения Тиля Уленшпигеля / Les aventures de Till l'Espiègle
Страна: Франция
Жанр: приключения, трагикомедия, исторический
Год выпуска: 1956
Продолжительность: 01:24:12
Перевод: Любительский (двухголосый закадровый) - LooDeniz и HeroyAsfalta
Cубтитры: русские (Mediaking / А. Королев)
Оригинальная аудиодорожка: французский

Режиссер: Жерар Филип / Gérard Philipe, Йорис Ивенс / Joris Ivens
В ролях: Жерар Филип, Жан Вилар, Фернан Леду, Николь Берже, Жан Карме, Жан Дебюкур, Вильгельм Кох-Хоге, Раймон Суплекс, Эльфрида Флорин, Габриэль Фонтан, Робер Порте, Анри Нассье, Роже Монто, Люсьен Калламан, Жаки Бланшо, Джо Давре, Мари-Бланш Вернь, Ив Брэнвиль, Анри Нассье, Вильгельм Кох-Хоге, Жорж Шамара, Анри Маршан, Анри Нассье, Александр Риньо, Роланд Пьетри, Рене Ворм
Описание: Образ Уленшпигеля — бродяги, плута и балагура — начал складываться в немецком и фламандском фольклоре в XIV в. Обилие анекдотов и шванков об Уленшпигеле сделало этот персонаж собирательным, подобно Ходже Насреддину. Если верить народной молве, Тиль — историческое лицо. Он якобы родился около 1300 г. в Кнайтлингене, много путешествовал по Германии, Бельгии и Нидерландам. Нидерландский кинорежиссер Йорис Ивенс совместно с Жераром Филипом снял фильм «Приключения Тиля Уленшпигеля». Роли Тиля и Ламме Гудзака исполнили соответственно Жерар Филип и Жан Карме.
В XVI-м веке, когда Фландрия оккупирована испанцами, Тиль-проказник поступает на службу к Фердинанду Альваре де Толеде, герцогу Альба (в фильме герцога часто называют просто Альб) и помогает своей хитростью и проворностью организовать сопротивление захватчику...

Качество видео:
Формат видео: AVI
Видео: 640x480 (1.33:1), 25 fps, XviD build 73 ~2077 kbps avg, 0.27 bit/pixel
Аудио: 48 kHz, AC3 Dolby Digital, 2/0 (L,R) ch, ~192 kbps - двухголосый
Аудио: 48 kHz, AC3 Dolby Digital, 2/0 (L,R) ch, ~192 kbps - оригинал

Сравнение

http://screenshotcomparison.com/comparison/140127
- авторская раздача
видеоряд тот же
http://screenshotcomparison.com/comparison/140128

MediaInfo

Общее
Полное имя : H:\Les.Aventures.de.Till l'Espiegle.1956.dvdrip_[1.46]_[teko]\Les.Aventures.de.Till l'Espiegle.1956.dvdrip_[1.46].avi
Формат : AVI
Формат/Информация : Audio Video Interleave
Размер файла : 1,46 Гбайт
Продолжительность : 1 ч. 24 м.
Общий поток : 2476 Кбит/сек
Программа кодирования : VirtualDubMod 1.5.10.3 | www.virtualdub-fr.org || (build 2550/release)
Библиотека кодирования : VirtualDubMod build 2550/release
Видео
Идентификатор : 0
Формат : MPEG-4 Visual
Профиль формата : Advanced Simple@L5
Параметр BVOP формата : 1
Параметр QPel формата : Нет
Параметр GMC формата : Без точки перехода
Параметр матрицы формата : Выборочная
Идентификатор кодека : XVID
Идентификатор кодека/Подсказка : XviD
Продолжительность : 1 ч. 24 м.
Битрейт : 2077 Кбит/сек
Ширина : 640 пикселей
Высота : 480 пикселей
Соотношение сторон : 4:3
Частота кадров : 25,000 кадров/сек
Цветовое пространство : YUV
Субдискретизация насыщенности : 4:2:0
Битовая глубина : 8 бит
Тип развёртки : Прогрессивная
Метод сжатия : С потерями
Бит/(Пиксели*Кадры) : 0.270
Размер потока : 1,22 Гбайт (84%)
Библиотека кодирования : XviD 73
Аудио #1
Идентификатор : 1
Формат : AC-3
Формат/Информация : Audio Coding 3
Расширение режима : CM (complete main)
Параметр Endianness формата : Big
Идентификатор кодека : 2000
Продолжительность : 1 ч. 24 м.
Вид битрейта : Постоянный
Битрейт : 192 Кбит/сек
Каналы : 2 канала
Расположение каналов : Front: L R
Частота : 48,0 КГц
Битовая глубина : 16 бит
Метод сжатия : С потерями
Задержка видео : 500 мс.
Размер потока : 116 Мбайт (8%)
Выравнивание : Разделение по промежуткам
Продолжительность промежутка : 40 мс. (1,00 видеокадр)
Время предзагрузки промежутка : 500 мс.
Аудио #2
Идентификатор : 2
Формат : AC-3
Формат/Информация : Audio Coding 3
Расширение режима : CM (complete main)
Параметр Endianness формата : Big
Идентификатор кодека : 2000
Продолжительность : 1 ч. 24 м.
Вид битрейта : Постоянный
Битрейт : 192 Кбит/сек
Каналы : 2 канала
Расположение каналов : Front: L R
Частота : 48,0 КГц
Битовая глубина : 16 бит
Метод сжатия : С потерями
Размер потока : 116 Мбайт (8%)
Выравнивание : Разделение по промежуткам
Продолжительность промежутка : 40 мс. (1,00 видеокадр)
Время предзагрузки промежутка : 500 мс.
Релиз группы:
-
-

To download the content you need:
1. Download and install torrent client [for Windows] or for mobile system
2. Click on [Download]
Attention.
If the test YOU are NOT a ROBOT - does not work, then You are using an outdated browser.
Install the current browser and click on [Download]
Security: torrent client is allowed by Kaspersky.

[en.asmlocator.ru].t3900.torrent 
Torrent: Registered [ 2015-11-30 05:45 ] · B44C669C444136269CCC1A27C9CC75B5EF91B188

Download .torrent

Download

15 KB

Status: checked
Completed: 0 times
Size: 1.46 GB
terms.php
[Profile] [PM]
Display posts:    
Reply to topic

Current time is: 14-Dec 00:29

All times are UTC ± 0



You cannot post new topics in this forum
You cannot reply to topics in this forum
You cannot edit your posts in this forum
You cannot delete your posts in this forum
You cannot vote in polls in this forum
You cannot attach files in this forum
You can download files in this forum
Верим фактам, а не вранью Путина! Факт, что Правительство ведёт Россию к истреблению.
Так как численность населения падает, даже не смотря на приток эмигрантов!
Русская нация вымирает и вырождается, смешиваясь с эмигрантами!
Факт, что военных и граждан предприятий заставляют голосовать за партию Единая Россия и Путина
ПОД СТРАХОМ УВОЛЬНЕНИЯ!
Нам не нужно Правительство, блокирующее личную жизнь, интернет, нарушающее сохранность данных.
Все эти действия финансируются за счёт народа!