Кричи снова и снова / Крик и снова крик / Кричи и опять кричи / Scream and Scream Again (Гордон Хесслер / Gordon Hessler) [1970, США, ужасы, фантастика, триллер, криминал, HDTVRip] DVO (НТВ+)

Reply to topic
DL-List and Torrent activity
Size:  744 MB   |    Registered:  4 years   |    Completed:  0 times

Seeder not seen: Never

 
   
 
 
Author Message

star21 ®

Gender: Female

Longevity: 4 years 1 month

Posts: 551946

Location: Екатеринбург

Post 30-Nov-2015 05:47

[Quote]

Кричи снова и снова / Крик и снова крик / Кричи и опять кричи / Scream and Scream Again
Страна: США
Жанр: ужасы, фантастика, триллер, криминал
Год выпуска: 1970
Продолжительность: 01:30:36
Перевод: Профессиональный (двухголосый закадровый) НТВ+
Cубтитры: нет
Режиссер: Гордон Хесслер / Gordon Hessler
В ролях: Винсент Прайс, Кристофер Ли, Питер Кушинг, Джуди Хакстэйбл, Альфред Маркс, Майкл Гозард, Энтони Ньюлендс, Питер Саллис, Дэвид Лодж, Ута Левка...
Описание: Где-то в Восточной Европе к власти приходит нацистский режим. Кто-то похищает специально выбранных людей по всему миру и проводит на них жестокие эксперименты. В это время в Англии доктор Браунинг по чьему-то секретному заказу пытается создать искусственную расу контролируемых сверхлюдей. И в это же самое время неизвестный психопат начинает кровавую охоту на улицах Лондона…
[imdb]http://www.imdb.com/title/tt0064949[/imdb]
Качество видео: HDTVRip
Формат видео: AVI
Видео: 608x336, 25.000 fps, XviD ~1011 kbps avg, 0.198 bit/pixel
Аудио: 48 kHz, MPEG Layer 3, 2 ch, 128 kbps avgРелиз группы

MediaInfo

General
Complete name               : C:\Video\Scream and Scream Again HDTVRip.avi
Format                      : AVI
Format/Info                 : Audio Video Interleave
File size                   : 744 MiB
Duration                    : 1h 30mn
Overall bit rate            : 1 149 Kbps
Writing application         : VirtualDubMod 1.5.10.3 | www.virtualdub-fr.org || (build 2550/release)
Writing library             : VirtualDubMod build 2550/release
Video
ID                          : 0
Format                      : MPEG-4 Visual
Format profile              : Advanced Simple@L5
Format settings, BVOP       : 2
Format settings, QPel       : No
Format settings, GMC        : No warppoints
Format settings, Matrix     : Default (MPEG)
Codec ID                    : XVID
Codec ID/Hint               : XviD
Duration                    : 1h 30mn
Bit rate                    : 1 011 Kbps
Width                       : 608 pixels
Height                      : 336 pixels
Display aspect ratio        : 16:9
Frame rate                  : 25.000 fps
Color space                 : YUV
Chroma subsampling          : 4:2:0
Bit depth                   : 8 bits
Scan type                   : Progressive
Compression mode            : Lossy
Bits/(Pixel*Frame)          : 0.198
Stream size                 : 655 MiB (88%)
Writing library             : XviD 1.2.1 (UTC 2008-12-04)
Audio
ID                          : 1
Format                      : MPEG Audio
Format version              : Version 1
Format profile              : Layer 3
Codec ID                    : 55
Codec ID/Hint               : MP3
Duration                    : 1h 30mn
Bit rate mode               : Constant
Bit rate                    : 128 Kbps
Channel(s)                  : 2 channels
Sampling rate               : 48.0 KHz
Compression mode            : Lossy
Stream size                 : 83.0 MiB (11%)
Alignment                   : Aligned on interleaves
Interleave, duration        : 40 ms (1.00 video frame)
Interleave, preload duratio : 504 ms
Writing library             : LAME3.99r
Encoding settings           : -m s -V 4 -q 0 -lowpass 17 -b 128

Скриншот c названием фильма

Скриншоты

To download the content you need:
1. Download and install torrent client [for Windows] or for mobile system
2. Click on [Download]
Attention.
If the test YOU are NOT a ROBOT - does not work, then You are using an outdated browser.
Install the current browser and click on [Download]
Security: torrent client is allowed by Kaspersky.

[en.asmlocator.ru].t3899.torrent 
Torrent: Registered [ 2015-11-30 05:45 ] · 8D75382DFF66F644A34DA5162B1199D24A92218C

Download .torrent

Download

15 KB

Status: checked
Completed: 0 times
Size: 744 MB
terms.php
[Profile] [PM]
Display posts:    
Reply to topic

Current time is: 09-Dec 05:08

All times are UTC ± 0



You cannot post new topics in this forum
You cannot reply to topics in this forum
You cannot edit your posts in this forum
You cannot delete your posts in this forum
You cannot vote in polls in this forum
You cannot attach files in this forum
You can download files in this forum
Верим фактам, а не вранью Путина! Факт, что Правительство ведёт Россию к истреблению.
Так как численность населения падает, даже не смотря на приток эмигрантов!
Русская нация вымирает и вырождается, смешиваясь с эмигрантами!
Факт, что военных и граждан предприятий заставляют голосовать за партию Единая Россия и Путина
ПОД СТРАХОМ УВОЛЬНЕНИЯ!
Нам не нужно Правительство, блокирующее личную жизнь, интернет, нарушающее сохранность данных.
Все эти действия финансируются за счёт народа!