Пожнешь бурю / Reap the Wild Wind (Сесил Блаунт Де Милль / Cecil Blount DeMille) [1942, США, приключения, драма, DVDRip] MVO

Reply to topic
DL-List and Torrent activity
Size:  1.46 GB   |    Registered:  4 years   |    Completed:  1 time

Seeder not seen: 1 month 23 days

 
   
 
 
Author Message

star21 ®

Gender: Female

Longevity: 4 years 1 month

Posts: 551946

Location: Екатеринбург

Post 30-Nov-2015 05:47

[Quote]

Пожнешь бурю / Reap the Wild Wind
Страна: США
Жанр: приключения, драма
Год выпуска: 1942
Продолжительность: 01:58:43
Перевод: Профессиональный (многоголосый закадровый)
Cубтитры: нет

Режиссер: Сесил Блаунт Де Милль / Cecil Blount DeMille
В ролях: Джон Уэйн, Полетт Годдар, Сьюзан Хэйуорд, Рэй Милланд, Рэймонд Мэсси, Роберт Престон, Линн Оверман, Чарльз Бикфорд, Уолтер Хэмпден, Луиз Биверс, Марта О'Дрисколл, Элизабет Рисдон, Хедда Хоппер, Виктор Килиан, Джанет Бичер, Лэйн Чандлер, Барбара Бриттон
Описание: В 1840-е годы Ки Уэст наводнен конторами спасателей, зарабатывающих подъемом грузов с затонувших кораблей. Владелец судна Локси Клейборн подозревает в нечестной игре спасателя Кинга Катлера — тот всегда оказывается в нужном месте, стоит произойти кораблекрушению. Тем временем поклонник Локси капитан Джек Стюарт тоже начинает вызывать подозрения, — по крайней мере, у ревнующего Локси адвоката Стива Толливера. Кого признают виновным?
Качество видео:
Формат видео: AVI
Видео: 624x464 (1.34:1), 25 fps, XviD build 73 ~1553 kbps avg, 0.21 bit/pixel
Аудио: 48 kHz, AC3 Dolby Digital, 2/0 (L,R) ch, ~192 kbps

MediaInfo

Общее
Полное имя : H:\Reap.the.Wild.Wind.1942.dvdrip_[1.46]_[teko].avi
Формат : AVI
Формат/Информация : Audio Video Interleave
Размер файла : 1,46 Гбайт
Продолжительность : 1 ч. 58 м.
Общий поток : 1755 Кбит/сек
Программа кодирования : VirtualDubMod 1.5.10.3 | www.virtualdub-fr.org || (build 2550/release)
Библиотека кодирования : VirtualDubMod build 2550/release
Видео
Идентификатор : 0
Формат : MPEG-4 Visual
Профиль формата : Advanced Simple@L5
Параметр BVOP формата : 1
Параметр QPel формата : Нет
Параметр GMC формата : Без точки перехода
Параметр матрицы формата : Выборочная
Идентификатор кодека : XVID
Идентификатор кодека/Подсказка : XviD
Продолжительность : 1 ч. 58 м.
Битрейт : 1553 Кбит/сек
Ширина : 624 пикселя
Высота : 464 пикселя
Соотношение сторон : 4:3
Частота кадров : 25,000 кадров/сек
Цветовое пространство : YUV
Субдискретизация насыщенности : 4:2:0
Битовая глубина : 8 бит
Тип развёртки : Прогрессивная
Метод сжатия : С потерями
Бит/(Пиксели*Кадры) : 0.215
Размер потока : 1,29 Гбайт (89%)
Библиотека кодирования : XviD 73
Аудио
Идентификатор : 1
Формат : AC-3
Формат/Информация : Audio Coding 3
Расширение режима : CM (complete main)
Параметр Endianness формата : Big
Идентификатор кодека : 2000
Продолжительность : 1 ч. 58 м.
Вид битрейта : Постоянный
Битрейт : 192 Кбит/сек
Каналы : 2 канала
Расположение каналов : Front: L R
Частота : 48,0 КГц
Битовая глубина : 16 бит
Метод сжатия : С потерями
Размер потока : 163 Мбайт (11%)
Выравнивание : Разделение по промежуткам
Продолжительность промежутка : 40 мс. (1,00 видеокадр)
Время предзагрузки промежутка : 500 мс.
Релиз группы:
-
-

To download the content you need:
1. Download and install torrent client [for Windows] or for mobile system
2. Click on [Download]
Attention.
If the test YOU are NOT a ROBOT - does not work, then You are using an outdated browser.
Install the current browser and click on [Download]
Security: torrent client is allowed by Kaspersky.

[en.asmlocator.ru].t3897.torrent 
Torrent: Registered [ 2015-11-30 05:45 ] · A50C381F0971136FE7071EC1CFC3299BBEED1736

Download .torrent

Download

15 KB

Status: checked
Completed: 1 times
Size: 1.46 GB
terms.php
[Profile] [PM]
Display posts:    
Reply to topic

Current time is: 12-Dec 18:15

All times are UTC ± 0



You cannot post new topics in this forum
You cannot reply to topics in this forum
You cannot edit your posts in this forum
You cannot delete your posts in this forum
You cannot vote in polls in this forum
You cannot attach files in this forum
You can download files in this forum
Верим фактам, а не вранью Путина! Факт, что Правительство ведёт Россию к истреблению.
Так как численность населения падает, даже не смотря на приток эмигрантов!
Русская нация вымирает и вырождается, смешиваясь с эмигрантами!
Факт, что военных и граждан предприятий заставляют голосовать за партию Единая Россия и Путина
ПОД СТРАХОМ УВОЛЬНЕНИЯ!
Нам не нужно Правительство, блокирующее личную жизнь, интернет, нарушающее сохранность данных.
Все эти действия финансируются за счёт народа!