Фауст / Faust (Фридрих Вильгельм Мурнау / F.W. Murnau) [1926, Германия, ужасы, фэнтези, DVDRip] Sub Rus, Eng + Original Eng

Reply to topic
DL-List and Torrent activity
Size:  1.46 GB   |    Registered:  4 years   |    Completed:  0 times

Seeder not seen: Never

 
   
 
 
Author Message

star21 ®

Gender: Female

Longevity: 4 years 1 month

Posts: 551946

Location: Екатеринбург

Post 30-Nov-2015 05:47

[Quote]

Фауст / Faust
Страна: Германия
Жанр: ужасы, фэнтези
Год выпуска: 1926
Продолжительность: 01:46:32
Перевод: Субтитры
Cубтитры: русские (Aileen (fenixclub)), английские, (интертитры немецкие)
Оригинальная аудиодорожка: английский

Режиссер: Фридрих Вильгельм Мурнау / F.W. Murnau
В ролях: Геста Экман, Эмиль Яннингс, Камилла Хорн, Фрида Рихард, Уильям Дитерле, Иветт Гильбер, Эрик Барклай, Ханна Ральф, Вернер Фюттерер, Ганс Браузеветтер
Описание: Поспорили архангел Михаил и Сатана: добро и зло — что сильнее? В центре пари высших сил — доктор Фауст, ученый старец, само благородство и воплощенное знание. Отчаявшись спасти свой город от чумы, он обращается-таки за помощью к темным силам, вызвав из Тьмы Сатану — и тот дарует ему чудесную силу…
Качество видео:
Формат видео: AVI
Видео: 640x496 (1.29:1), 23.976 fps, XviD build 73 ~1753 kbps avg, 0.23 bit/pixel
Аудио: 48 kHz, AC3 Dolby Digital, 2/0 (L,R) ch, ~192 kbps

пример субтитров

126
00:32:02,480 --> 00:32:05,313
А в мире столько удовольствиЙ!"
127
00:32:07,480 --> 00:32:10,358
"Я слишком стар!"
128
00:32:21,480 --> 00:32:24,472
"Я предлагаю тебе счастье:
129
00:32:24,520 --> 00:32:27,432
молодость!
130
00:32:27,480 --> 00:32:30,392
Возьми ее!"
131
00:32:39,320 --> 00:32:42,471
"ДаЙ мне молодость!"
132
00:34:00,280 --> 00:34:03,272
"Я поЙмал тебя, старик!"
133
00:35:07,280 --> 00:35:10,431
"Верни ее мне!"
134
00:35:15,440 --> 00:35:19,274
"Ступи на плащ моЙ..."
135
00:35:20,320 --> 00:35:24,438
"...и вращение Земли вернет тебя!"
136
00:38:04,440 --> 00:38:06,510
"СвадебныЙ пир...
137
00:38:07,280 --> 00:38:09,350
...у герцогини Парма,
138
00:38:09,400 --> 00:38:11,470
первой красавицы...
139
00:38:11,520 --> 00:38:14,273
...Италии!"
140
00:38:52,440 --> 00:38:55,273
"Странные гости!"
141
00:39:22,360 --> 00:39:27,354
"Чтоб дань воздать великоЙ красоте,
142
00:39:27,400 --> 00:39:33,270
...мой господин прислал
сокровища короны!"

MediaInfo

Общее
Полное имя : H:\Faust.1926.dvdrip_[1.46]_[teko]\Faust.1926.dvdrip_[1.46].avi
Формат : AVI
Формат/Информация : Audio Video Interleave
Размер файла : 1,46 Гбайт
Продолжительность : 1 ч. 46 м.
Общий поток : 1955 Кбит/сек
Программа кодирования : VirtualDubMod 1.5.10.3 | www.virtualdub-fr.org || (build 2550/release)
Библиотека кодирования : VirtualDubMod build 2550/release
Видео
Идентификатор : 0
Формат : MPEG-4 Visual
Профиль формата : Advanced Simple@L5
Параметр BVOP формата : 1
Параметр QPel формата : Нет
Параметр GMC формата : Без точки перехода
Параметр матрицы формата : Выборочная
Идентификатор кодека : XVID
Идентификатор кодека/Подсказка : XviD
Продолжительность : 1 ч. 46 м.
Битрейт : 1754 Кбит/сек
Ширина : 640 пикселей
Высота : 496 пикселей
Соотношение сторон : 1,290
Частота кадров : 23,976 кадра/сек
Цветовое пространство : YUV
Субдискретизация насыщенности : 4:2:0
Битовая глубина : 8 бит
Тип развёртки : Прогрессивная
Метод сжатия : С потерями
Бит/(Пиксели*Кадры) : 0.230
Размер потока : 1,31 Гбайт (90%)
Библиотека кодирования : XviD 73
Аудио
Идентификатор : 1
Формат : AC-3
Формат/Информация : Audio Coding 3
Расширение режима : CM (complete main)
Параметр Endianness формата : Big
Идентификатор кодека : 2000
Продолжительность : 1 ч. 46 м.
Вид битрейта : Постоянный
Битрейт : 192 Кбит/сек
Каналы : 2 канала
Расположение каналов : Front: L R
Частота : 48,0 КГц
Битовая глубина : 16 бит
Метод сжатия : С потерями
Размер потока : 146 Мбайт (10%)
Выравнивание : Разделение по промежуткам
Продолжительность промежутка : 42 мс. (1,00 видеокадр)
Время предзагрузки промежутка : 500 мс.

Скриншоты

Релиз группы:
-
-

To download the content you need:
1. Download and install torrent client [for Windows] or for mobile system
2. Click on [Download]
Attention.
If the test YOU are NOT a ROBOT - does not work, then You are using an outdated browser.
Install the current browser and click on [Download]
Security: torrent client is allowed by Kaspersky.

[en.asmlocator.ru].t3895.torrent 
Torrent: Registered [ 2015-11-30 05:45 ] · B3C914D70A6B04E72A9D050F9AB3ED9501483072

Download .torrent

Download

15 KB

Status: checked
Completed: 0 times
Size: 1.46 GB
terms.php
[Profile] [PM]
Display posts:    
Reply to topic

Current time is: 09-Dec 05:03

All times are UTC ± 0



You cannot post new topics in this forum
You cannot reply to topics in this forum
You cannot edit your posts in this forum
You cannot delete your posts in this forum
You cannot vote in polls in this forum
You cannot attach files in this forum
You can download files in this forum
Верим фактам, а не вранью Путина! Факт, что Правительство ведёт Россию к истреблению.
Так как численность населения падает, даже не смотря на приток эмигрантов!
Русская нация вымирает и вырождается, смешиваясь с эмигрантами!
Факт, что военных и граждан предприятий заставляют голосовать за партию Единая Россия и Путина
ПОД СТРАХОМ УВОЛЬНЕНИЯ!
Нам не нужно Правительство, блокирующее личную жизнь, интернет, нарушающее сохранность данных.
Все эти действия финансируются за счёт народа!