Собачья жизнь / Vita da cani (Марио Моничелли / Mario Monicelli, Стено / Steno (Stefano Vanzina)) [1950, Италия, Комедия, мелодрама, DVDRip-AVC] MVO ("Пифагор") + MVO + Sub Ita + Sub Spa + Original Ita

Reply to topic
DL-List and Torrent activity
Size:  1.41 GB   |    Registered:  4 years   |    Completed:  0 times

Seeder not seen: Never

 
   
 
 
Author Message

star21 ®

Gender: Female

Longevity: 4 years 1 month

Posts: 551946

Location: Екатеринбург

Post 30-Nov-2015 05:47

[Quote]

Собачья жизнь / Vita da cani
Жанр: Комедия, мелодрама
Страна: Италия
Студия: Carlo Ponti Cinematografica
Год выпуска: 1950
Продолжительность: 01:39:34
Перевод #1: Профессиональный (многоголосый закадровый) - студия "Пифагор"
Перевод #2: Профессиональный (многоголосый закадровый)
Cубтитры: итальянские + испанские
Оригинальная аудиодорожка: итальянский
Режиссер: Марио Моничелли / Mario Monicelli, Стено / Steno (Stefano Vanzina)
В ролях:
Альдо Фабрици / Aldo Fabrizi ... Nino Martoni
Джина Лоллобриджида / Gina Lollobrigida ... Margherita «Rita Buton»
Марчелло Мастроянни / Marcello Mastroianni ... Carlo Danesi, fidanzato di Franca
Делия Скала / Delia Scala ... Vera
Тамара Леес / Tamara Lees ... Franca
Джованни Баррелла / Giovanni Barrella ... L'impresario
Бруно Корелли / Bruno Corelli ... Dedè Moreno, il primo ballerino
Энцо Фурлаи / Enzo Furlai ... Boselli
Энцо Маджио / Enzo Maggio ... Gigetto
Микеле Маласпина / Michele Malaspina ... Il commendatore Cantelli
Паскуале Мисиано / Pasquale Misiano ...
Эдуардо Пассарелли / Eduardo Passarelli ...
Марио Руссо / Mario Russo ...
Джубал Шембри / Jubal Schembri ...
Нита Довер / Nyta Dover ... Lucy d'Astrid
Описание: Действие фильма происходит в Италии в первые послевоенные годы.
Нино Мартони является директором захудалого театра-кабаре, в котором работают три главные героини фильма. В поисках лучшей жизни Франка оставила своего жениха, потому что её не прельщала жизнь с небогатым инженером Карло. Вера влюблена в Марио, сына богатого предпринимателя, но их разделяет социальное неравенство. Сам Нино влюблён в свою лучшую артистку Маргериту. После взлётов и падений по-разному складывается судьба девушек. Одна предпочтёт брак с любимым карьере, другая выйдет замуж по расчёту, только третьей уготовано стать звездой...
Доп. информация:
Автор рипа: pmv
Исходник DVD5 () c pаздачи Master_Bum , за что ему Большое Спасибо!
Большое спасибо за:
- русскую звуковую дорожку с многоголосой озвучкой (студия «Пифагор» по заказу ГТРК "Культура" в 2005 году) - гость
- русскую звуковую дорожку с многоголосой озвучкой - erp111
В первой звуковой дорожке в начале 59 минуты Master_Bum вставил 37 секундный перевод со второй дорожки.
IMDb = 6,8/10 from 100 users - [imdb]http://www.imdb.com/title/tt0043108[/imdb]
Кинопоиск = 7.864 (90) - http://www.kinopoisk.ru/film/34733/
ПРОСЬБА к СКАЧАВШИМ. НЕ УХОДИТЕ С РАЗДАЧИ, ПОМОГИТЕ ДРУГИМ СКАЧАТЬ!!!
ВНИМАНИЕ!!! РИП ФОРМАТА mkv (кодек H.264) ВОСПРОИЗВОДИТСЯ НЕ НА ВСЕХ БЫТОВЫХ ВИДЕОПЛЕЕРАХ!!!
Качество видео: DVDRip-AVC
Формат видео: MKV
Видео: AVC (H.264), 704@768x576 (1.33:1), 25.00 fps, 1312 Kbps avg, 0.122 bit/pixel
Аудио #1: AC3, 48 KHz, stereo (2 ch), 224 Kbps - русский (студия «Пифагор»)
Аудио #2: AC3, 48 KHz, stereo (2 ch), 224 Kbps - русский многоголосый
Аудио #3: AC3, 48 KHz, stereo (2 ch), 224 Kbps - итальянский

MediaInfo

General
Complete name : D:\torrents\Vita da cani (1950, rus_MVO+rus_MVO+ita+sub_ita+sub_esp).mkv
Format : Matroska
File size : 1.41 GiB
Duration : 1h 39mn
Overall bit rate : 2 024 Kbps
Encoded date : UTC 2015-08-27 23:29:15
Writing application : mkvmerge v8.3.0 ('Over the Horizon') 64bit
Writing library : libebml v1.3.1 + libmatroska v1.4.2
Video
ID : 1
Format : AVC
Format/Info : Advanced Video Codec
Format profile : High@L4.0
Format settings, CABAC : Yes
Format settings, ReFrames : 16 frames
Muxing mode : Container profile=Unknown@4.0
Codec ID : V_MPEG4/ISO/AVC
Duration : 1h 39mn
Bit rate : 1 312 Kbps
Nominal bit rate : 1 350 Kbps
Width : 704 pixels
Height : 576 pixels
Display aspect ratio : 4:3
Original display aspect ratio : 1.222
Frame rate : 25.000 fps
Resolution : 8 bits
Colorimetry : 4:2:0
Scan type : Progressive
Bits/(Pixel*Frame) : 0.129
Stream size : 935 MiB (65%)
Writing library : x264 core 146 r2538 121396c
Encoding settings : cabac=1 / ref=16 / deblock=1:0:0 / analyse=0x3:0x133 / me=umh / subme=10 / psy=1 / psy_rd=1.00:0.00 / mixed_ref=1 / me_range=24 / chroma_me=1 / trellis=2 / 8x8dct=1 / cqm=0 / deadzone=21,11 / fast_pskip=1 / chroma_qp_offset=-2 / threads=30 / lookahead_threads=4 / sliced_threads=0 / nr=0 / decimate=1 / interlaced=0 / bluray_compat=0 / constrained_intra=0 / bframes=8 / b_pyramid=2 / b_adapt=2 / b_bias=0 / direct=3 / weightb=1 / open_gop=0 / weightp=2 / keyint=250 / keyint_min=25 / scenecut=40 / intra_refresh=0 / rc_lookahead=60 / rc=2pass / mbtree=1 / bitrate=1350 / ratetol=1.0 / qcomp=0.60 / qpmin=0 / qpmax=69 / qpstep=4 / cplxblur=20.0 / qblur=0.5 / ip_ratio=1.40 / aq=1:1.00
Audio #1
ID : 2
Format : AC-3
Format/Info : Audio Coding 3
Codec ID : A_AC3
Duration : 1h 39mn
Bit rate mode : Constant
Bit rate : 224 Kbps
Channel(s) : 2 channels
Channel positions : Front: L R
Sampling rate : 48.0 KHz
Stream size : 160 MiB (11%)
Language : Russian
Audio #2
ID : 3
Format : AC-3
Format/Info : Audio Coding 3
Codec ID : A_AC3
Duration : 1h 39mn
Bit rate mode : Constant
Bit rate : 224 Kbps
Channel(s) : 2 channels
Channel positions : Front: L R
Sampling rate : 48.0 KHz
Stream size : 160 MiB (11%)
Language : Russian
Audio #3
ID : 4
Format : AC-3
Format/Info : Audio Coding 3
Codec ID : A_AC3
Duration : 1h 39mn
Bit rate mode : Constant
Bit rate : 224 Kbps
Channel(s) : 2 channels
Channel positions : Front: L R
Sampling rate : 48.0 KHz
Stream size : 160 MiB (11%)
Language : Italian
Text #1
ID : 5
Format : UTF-8
Codec ID : S_TEXT/UTF8
Codec ID/Info : UTF-8 Plain Text
Language : Italian
Text #2
ID : 6
Format : UTF-8
Codec ID : S_TEXT/UTF8
Codec ID/Info : UTF-8 Plain Text
Language : Spanish

Скриншот c названием фильма

Скриншоты

Анаморфный вид

768 х 576

Сравнение c раздачей Papa-san от 21-Мая-2009

Papa-san, DVDRip, 704 х 528, 1.37 Gb < > CaCa48, DVDRip-AVC, 768 х 576, 1.41 Gb
http://screenshotcomparison.com/comparison/140198
МОИ РАЗДАЧИ НА РУТРЕКЕРЕ:

To download the content you need:
1. Download and install torrent client [for Windows] or for mobile system
2. Click on [Download]
Attention.
If the test YOU are NOT a ROBOT - does not work, then You are using an outdated browser.
Install the current browser and click on [Download]
Security: torrent client is allowed by Kaspersky.

[en.asmlocator.ru].t3894.torrent 
Torrent: Registered [ 2015-11-30 05:45 ] · 8C8457F8324AA8302D742225DFEBCBBBF42BD06B

Download .torrent

Download

15 KB

Status: checked
Completed: 0 times
Size: 1.41 GB
terms.php
[Profile] [PM]
Display posts:    
Reply to topic

Current time is: 08-Dec 16:27

All times are UTC ± 0



You cannot post new topics in this forum
You cannot reply to topics in this forum
You cannot edit your posts in this forum
You cannot delete your posts in this forum
You cannot vote in polls in this forum
You cannot attach files in this forum
You can download files in this forum
Верим фактам, а не вранью Путина! Факт, что Правительство ведёт Россию к истреблению.
Так как численность населения падает, даже не смотря на приток эмигрантов!
Русская нация вымирает и вырождается, смешиваясь с эмигрантами!
Факт, что военных и граждан предприятий заставляют голосовать за партию Единая Россия и Путина
ПОД СТРАХОМ УВОЛЬНЕНИЯ!
Нам не нужно Правительство, блокирующее личную жизнь, интернет, нарушающее сохранность данных.
Все эти действия финансируются за счёт народа!