День на скачках / A Day at the Races (Сэм Вуд / Sam Wood) [1937, США, комедия, спорт, WEB-DLRip] VO + Original Eng

Reply to topic
DL-List and Torrent activity
Size:  2.05 GB   |    Registered:  4 years 7 months   |    Completed:  0 times

Seeder not seen: Never

 
   
 
 
Author Message

star21 ®

Gender: Female

Longevity: 4 years 8 months

Posts: 551945

Location: Екатеринбург

Post 30-Nov-2015 05:47

[Quote]

День на скачках / A Day at the Races

Слоган: «Three Great Laff Stars ! . . . more gags and gals . . . more songs and dances !»
Страна: США
Студия: Metro-Goldwyn-Mayer (MGM)
Жанр: комедия, спорт
Год выпуска: 1937
Продолжительность: 01:44:50
Перевод: Одноголосый закадровый
Cубтитры: нет
Оригинальная аудиодорожка: английский
Режиссер: Сэм Вуд / Sam Wood
В ролях: Граучо Маркс, Чико Маркс, Харпо Маркс, Аллан Джонс, Морин О’Салливан, Маргарет Дюмон, Leonard Ceeley, Дагласс Дамбрилл, Эстер Мьюир, Сиг Руман ...
Описание: У очаровательной женщины, запутавшейся в долгах, хотят отнять заложенный и перезаложенный санаторий, в котором осталась только одна богатая пациентка, настоявшая на том, чтобы главврачом назначили любовь ее далекой молодости, ветеринара Хэкенбуша.
Доп. информация: Рип сделан из этого-- [imdb]http://www.imdb.com/title/tt0028772[/imdb]--A Day at the Races (1937)_WEB-DLRip_Sample_.avi--Качество видео: WEB-DLRip
Формат видео: AVI
Видео: 704x528 (1.33:1), 25 fps, XviD build 50 ~ 2399 kbps avg, 0.26 bit/pixel
Аудио 1: 48 kHz, AC3 Dolby Digital, 2/0 (L,R) ch, ~192 kbps, Русский
Аудио 2: 48 kHz, AC3 Dolby Digital, 2/0 (L,R) ch, ~192 kbps, Английский

Награды

AviInfo

File: A Day at the Races (1937)_WEB-DLRip_.avi
Title: A Day at the Races (1937)
Copyleft: Ripped_by_rjhlb777
Genre: Comedy, Sport
Category: Movie
Comment: VO + Original Eng
FileSize: 2101.70 Mb ( 2 203 791 360 bytes )
Play length: 01:44:50.919 (157273 frames)
Subtitles: Not Present
Video: 704x528 (1.33:1), 25 fps, XviD build 50 ~2411 kbps avg, 0.26 bit/pixel
Audio #1: 48 kHz, AC3 Dolby Digital, 2/0 (L,R) ch, ~192 kbps
Audio #2: 48 kHz, AC3 Dolby Digital, 2/0 (L,R) ch, ~192 kbps

MediaInfo

General
Complete name : C:\Temp\A Day at the Races (1937)_WEB-DLRip_.avi
Format : AVI
Format/Info : Audio Video Interleave
Format profile : OpenDML
File size : 2.05 GiB
Duration : 1h 44mn
Overall bit rate : 2 803 Kbps
Movie name : A Day at the Races (1937)
Genre : Comedy, Sport
Writing application : VirtualDubMod 1.5.10.3 | www.virtualdub-fr.org || (build 2550/release)
Original source form/Name : Movie
Copyright : Ripped_by_rjhlb777
Comment : VO + Original Eng
Video
ID : 0
Format : MPEG-4 Visual
Format profile : Advanced Simple@L5
Format settings, BVOP : 1
Format settings, QPel : No
Format settings, GMC : No warppoints
Format settings, Matrix : Default (MPEG)
Codec ID : XVID
Codec ID/Hint : XviD
Duration : 1h 44mn
Bit rate : 2 399 Kbps
Width : 704 pixels
Height : 528 pixels
Display aspect ratio : 4:3
Frame rate : 25.000 fps
Color space : YUV
Chroma subsampling : 4:2:0
Bit depth : 8 bits
Scan type : Progressive
Compression mode : Lossy
Bits/(Pixel*Frame) : 0.258
Stream size : 1.76 GiB (86%)
Writing library : XviD 1.2.1 (UTC 2008-12-04)
Audio #1
ID : 1
Format : AC-3
Format/Info : Audio Coding 3
Mode extension : CM (complete main)
Format settings, Endianness : Big
Codec ID : 2000
Duration : 1h 44mn
Bit rate mode : Constant
Bit rate : 192 Kbps
Channel(s) : 2 channels
Channel positions : Front: L R
Sampling rate : 48.0 KHz
Compression mode : Lossy
Stream size : 144 MiB (7%)
Alignment : Split accross interleaves
Interleave, duration : 40 ms (1.00 video frame)
Interleave, preload duratio : 500 ms
Audio #2
ID : 2
Format : AC-3
Format/Info : Audio Coding 3
Mode extension : CM (complete main)
Format settings, Endianness : Big
Codec ID : 2000
Duration : 1h 44mn
Bit rate mode : Constant
Bit rate : 192 Kbps
Channel(s) : 2 channels
Channel positions : Front: L R
Sampling rate : 48.0 KHz
Compression mode : Lossy
Stream size : 144 MiB (7%)
Alignment : Split accross interleaves
Interleave, duration : 40 ms (1.00 video frame)
Interleave, preload duratio : 500 ms

Скриншоты сравнения

Papa-san
http://screenshotcomparison.com/comparison/140322

To download the content you need:
1. Download and install torrent client [for Windows] or for mobile system
2. Click on [Download]
Attention.
If the test YOU are NOT a ROBOT - does not work, then You are using an outdated browser.
Install the current browser and click on [Download]

Do not work with Yandex browser. Uploading files to them is erroneous.
Security: torrent client is allowed by Kaspersky.

[en.asmlocator.ru].t3892.torrent 
Torrent: Registered [ 2015-11-30 05:45 ] · F2363E2EE9601BDDEC435247B8F0130FDBA9A8CC

Download .torrent

Download

11 KB

Status: checked
Completed: 0 times
Size: 2.05 GB
terms.php
[Profile] [PM]
Display posts:    
Reply to topic

Current time is: 13-Jul 00:55

All times are UTC ± 0



You cannot post new topics in this forum
You cannot reply to topics in this forum
You cannot edit your posts in this forum
You cannot delete your posts in this forum
You cannot vote in polls in this forum
You cannot attach files in this forum
You can download files in this forum
Верим фактам, а не вранью Путина! Факт, что Правительство ведёт Россию к истреблению.
Так как численность населения падает, даже не смотря на приток эмигрантов!
Русская нация вымирает и вырождается, смешиваясь с эмигрантами!
Факт, что военных и граждан предприятий заставляют голосовать за партию Единая Россия и Путина
ПОД СТРАХОМ УВОЛЬНЕНИЯ!
Нам не нужно Правительство, блокирующее личную жизнь, интернет, нарушающее сохранность данных.
Все эти действия финансируются за счёт народа!