Вторжение мавров / Короли Франции / Пленная сарацинка / Attack of Moors / I Reali di Francia / Der Gefanqene der Safanqene (Марио Коста / Mario Costa) [1959, Италия, драма, приключения, костюмированый, VHSRip] VO (SATKUR) + Original Eng

Reply to topic
DL-List and Torrent activity
Size:  1.15 GB   |    Registered:  4 years   |    Completed:  0 times

Seeder not seen: 3 years 4 months

 
   
 
 
Author Message

star21 ®

Gender: Female

Longevity: 4 years 1 month

Posts: 551946

Location: Екатеринбург

Post 30-Nov-2015 05:47

[Quote]

Вторжение мавров / Короли Франции / Пленная сарацинка / Attack of Moors / I Reali di Francia / Der Gefanqene der Safanqene
Страна: Италия
Жанр: драма, приключения, костюмированый
Год выпуска: 1959
Продолжительность: 01:16:55
Перевод: Одноголосый закадровый SATKUR
Cубтитры: нет
Оригинальная аудиодорожка: английский
Режиссер: Марио Коста / Mario Costa
В ролях: Чело Алонсо
Рик Батталья
Жерар Ландри
Лиана Орфей
Ливио Лоренцон
Андреа Скотти
Франко Фантазия
Луизелла Бони
Ольга Сольбелли
Джино Мартурано
Описание: Роланд, граф Безансонский, должен обеспечивать личную безопасность французского короля Людовика VII во время затеянного тем паломничества в Испанию. Оказавшись на Пиренеях, французский граф оказывается в центре интриг, ведущихся вокруг эмира мавров. Главный визирь того решил взять власть в свои руки и устранить своего повелителя. Но на его пути остается еще дочь эмира Сулейма, которая, к тому же, успела влюбиться в красавца-гяура.
Доп. информация: Озвучено по субтитрам Андрей-д (оригинальная дорожка англо-немецкая, но отреставрирована: почищена от шумов и щелчков, также, насколько возможно, улучшено изображение VHS). Фильм предоставлен Андрей-д.
Сэмпл: http://multi-up.com/1064214
Качество видео: VHSRip
Формат видео: AVI
Видео: 640Х480, 4:3, 25,000 fps, 1733 Kbps
Аудио 1: 48 kHz, AC3 Dolby Digital, 2/0 (L,R) ch, ~192.00 kbps - русский
Аудио 2: 48 kHz, AC3 Dolby Digital, 2/0 (L,R) ch, ~192.00 kbps - английский (на немецкую)

MediaInfo

Общее
Полное имя : F:\FILMY\FILM-2015\Disk-101\Вторжение мавров\Attack.of.Moors.1959.Ita.[vo.satkur+eng].AC3.Rus\Attack.of.Moors.1959.Ita.[vo.satkur+eng].AC3.Rus.avi
Формат : AVI
Формат/Информация : Audio Video Interleave
Размер файла : 1,15 Гбайт
Продолжительность : 1 ч. 16 м.
Общий поток : 2132 Кбит/сек
Программа кодирования : VirtualDubModRus 1.5.10.2 (build 2542/release)
Библиотека кодирования : VirtualDubMod build 2542/release
Видео
Идентификатор : 0
Формат : MPEG-4 Visual
Профиль формата : Simple@L1
Параметр BVOP формата : Нет
Параметр QPel формата : Нет
Параметр GMC формата : Без точки перехода
Параметр матрицы формата : Default (H.263)
Идентификатор кодека : XVID
Идентификатор кодека/Подсказка : XviD
Продолжительность : 1 ч. 16 м.
Битрейт : 1733 Кбит/сек
Ширина : 640 пикселей
Высота : 480 пикселей
Соотношение сторон : 4:3
Частота кадров : 25,000 кадров/сек
Цветовое пространство : YUV
Субдискретизация насыщенности : 4:2:0
Битовая глубина : 8 бит
Тип развёртки : Прогрессивная
Метод сжатия : С потерями
Бит/(Пиксели*Кадры) : 0.226
Размер потока : 954 Мбайт (81%)
Библиотека кодирования : Lavc52.84.0
Аудио #1
Идентификатор : 1
Формат : AC-3
Формат/Информация : Audio Coding 3
Расширение режима : CM (complete main)
Параметр Endianness формата : Big
Идентификатор кодека : 2000
Продолжительность : 1 ч. 16 м.
Вид битрейта : Постоянный
Битрейт : 192 Кбит/сек
Каналы : 2 канала
Расположение каналов : Front: L R
Частота : 48,0 КГц
Битовая глубина : 16 бит
Метод сжатия : С потерями
Размер потока : 106 Мбайт (9%)
Выравнивание : Разделение по промежуткам
Продолжительность промежутка : 40 мс. (1,00 видеокадр)
Время предзагрузки промежутка : 500 мс.
Аудио #2
Идентификатор : 2
Формат : AC-3
Формат/Информация : Audio Coding 3
Расширение режима : CM (complete main)
Параметр Endianness формата : Big
Идентификатор кодека : 2000
Продолжительность : 1 ч. 16 м.
Вид битрейта : Постоянный
Битрейт : 192 Кбит/сек
Каналы : 2 канала
Расположение каналов : Front: L R
Частота : 48,0 КГц
Битовая глубина : 16 бит
Метод сжатия : С потерями
Размер потока : 106 Мбайт (9%)
Выравнивание : Разделение по промежуткам
Продолжительность промежутка : 40 мс. (1,00 видеокадр)
Время предзагрузки промежутка : 500 мс.

Скриншот c названием фильма

Скриншоты

To download the content you need:
1. Download and install torrent client [for Windows] or for mobile system
2. Click on [Download]
Attention.
If the test YOU are NOT a ROBOT - does not work, then You are using an outdated browser.
Install the current browser and click on [Download]
Security: torrent client is allowed by Kaspersky.

[en.asmlocator.ru].t3890.torrent 
Torrent: Registered [ 2015-11-30 05:45 ] · F084F8C77917CFF6364EC804936B7CDA918DE7AF

Download .torrent

Download

12 KB

Status: checked
Completed: 0 times
Size: 1.15 GB
terms.php
[Profile] [PM]
Display posts:    
Reply to topic

Current time is: 14-Dec 00:35

All times are UTC ± 0



You cannot post new topics in this forum
You cannot reply to topics in this forum
You cannot edit your posts in this forum
You cannot delete your posts in this forum
You cannot vote in polls in this forum
You cannot attach files in this forum
You can download files in this forum
Верим фактам, а не вранью Путина! Факт, что Правительство ведёт Россию к истреблению.
Так как численность населения падает, даже не смотря на приток эмигрантов!
Русская нация вымирает и вырождается, смешиваясь с эмигрантами!
Факт, что военных и граждан предприятий заставляют голосовать за партию Единая Россия и Путина
ПОД СТРАХОМ УВОЛЬНЕНИЯ!
Нам не нужно Правительство, блокирующее личную жизнь, интернет, нарушающее сохранность данных.
Все эти действия финансируются за счёт народа!