Высокая история / Большая история / Tall Story (Джошуа Логан / Joshua Logan) [1960, США, комедия, спорт, DVDRip] VO (Алексей Яковлев) + Original Eng

Reply to topic
DL-List and Torrent activity
Size:  780 MB   |    Registered:  4 years   |    Completed:  0 times

Seeder not seen: 2 years 2 months

 
   
 
 
Author Message

star21 ®

Gender: Female

Longevity: 4 years 1 month

Posts: 551946

Location: Екатеринбург

Post 30-Nov-2015 05:47

[Quote]

Высокая история / Tall Story
Страна: США
Жанр: комедия, спорт
Год выпуска: 1960
Продолжительность: 01:29:05
Перевод: Одноголосый закадровый -
Cубтитры: нет
Оригинальная аудиодорожка: английский
Режиссер: Джошуа Логан / Joshua Logan
Композитор: Сирил Дж. Мокридж / Cyril J. Mockridge
В ролях: Энтони Перкинс / Anthony Perkins ... Ray Blent
Джейн Фонда / Jane Fonda ... June Ryder
Рей Уолстон / Ray Walston ... Professor Leo Sullivan
Марк Коннелли / Marc Connelly ... Professor Charles Osman
Энн Джексон / Anne Jackson ... Myra Sullivan
Мюррэй Хэмилтон / Murray Hamilton ... Coach Sandy Hardy
Боб Райт / Bob Wright ... President Harmon Nagel
Барт Барнс / Bart Burns ... District Attorney Davis
Карл Лукас / Karl Lukas ... 1st Detective
Элизабет Паттерсон / Elizabeth Patterson ... Connie
Том Лофлин / Tom Laughlin ... Fred Jensen
Барбара Дарроу / Barbara Darrow ... Frieda Jensen

Роберт Редфорд / Robert Redford ... Basketball Player, в титрах не указан
Описание: Талантливый баскетболист из одного американского колледжа Рэй Блент оказался в трудной ситуации. У него возникли проблемы с преподавателем, а на носу уже очень важный экзамен, который Рэй должен сдать, если хочет и дальше остаться в университетской команде. А тут ещё в его жизнь вносит путаницу очаровательная чирлидерша Джун Райдер... Если у Рэя получится дотянуть до конца семестра, у него появится шанс попасть в профессиональную лигу и заработать денег, чтобы жениться на Джун...

Интересные факты

- Этот фильм стал дебютом в кино для Джейн Фонды и Роберта Редфорда.
- Не смотря на то, что это был её первый фильм, Джейн Фонде был заплачен звёздный гонорар.
- Пьеса Говарда Линдсея и Рассела Круза „Большая история“ была поставлена в нью-йоркском театре Беласко 29 января 1959 года и выдержала 108 представлений.
- Клинт Иствуд и Уоррен Битти рассматривались на роль Рэя Блента, но Warner Bros. не хотели рисковать проектом, отдавая главные роли малоизвестным актёрам. Поэтому в партнёры дебютантке Джейн Фонде был приглашен уже имевший звёздный статус Энтони Перкинс.

-
-БОЛЬШОЕ СПАСИБО:
Работа со звуком и реавторинг DVD -
Перевод и озвучивание фильма -
Также Большое Спасибо всем, кто принял участие в появлении озвучки к этому фильму:
Магда, Lafajet, jasenka, елена 22, yanaelisa, surzhoks, mumzik69, leoder, voostorg, HippopotamusIV, cementit, Patsy+, Ugo927, spartakeynoir, GalaUkr
----Сэмпл: http://multi-up.com/1064233
Качество видео: DVDRip
Формат видео: AVI
Видео: XviD, 576x320 (16:9), 23.976 fps, 959 Kbps
Аудио 1: MP3, 48.0 KHz, 2 ch., 128 Kbps (русский одноголосый закадровый перевод) - Алексей Яковлев
Аудио 2: MP3, 48.0 KHz, 2 ch., 128 Kbps (оригинальная английская звуковая дорожка, лежит отдельно)
(см. "Программы для работы с контейнерами" - > "VirtualDub" или "AVI-Mux")

MediaInfo

AVI-файл:
Общее
Полное имя : K:\раздачи\Tall Story 1960 700MB\Tall Story.avi
Формат : AVI
Формат/Информация : Audio Video Interleave
Размер файла : 698 Мбайт
Продолжительность : 1 ч. 29 м.
Общий поток : 1096 Кбит/сек
Программа кодирования : VirtualDubMod 1.5.10.3 | www.virtualdub-fr.org || (build 2550/release)
Библиотека кодирования : VirtualDubMod build 2550/release
Видео
Идентификатор : 0
Формат : MPEG-4 Visual
Профиль формата : Advanced Simple@L5
Параметр BVOP формата : 2
Параметр QPel формата : Нет
Параметр GMC формата : Без точки перехода
Параметр матрицы формата : Default (H.263)
Идентификатор кодека : DX50
Идентификатор кодека/Подсказка : DivX 5
Продолжительность : 1 ч. 29 м.
Битрейт : 959 Кбит/сек
Ширина : 576 пикселей
Высота : 320 пикселей
Соотношение сторон : 16:9
Частота кадров : 23,976 кадра/сек
Цветовое пространство : YUV
Субдискретизация насыщенности : 4:2:0
Битовая глубина : 8 бит
Тип развёртки : Прогрессивная
Метод сжатия : С потерями
Бит/(Пиксели*Кадры) : 0.217
Размер потока : 611 Мбайт (87%)
Библиотека кодирования : XviD 73
Аудио
Идентификатор : 1
Формат : MPEG Audio
Версия формата : Version 1
Профиль формата : Layer 3
Идентификатор кодека : 55
Идентификатор кодека/Подсказка : MP3
Продолжительность : 1 ч. 29 м.
Вид битрейта : Постоянный
Битрейт : 128 Кбит/сек
Каналы : 2 канала
Частота : 48,0 КГц
Метод сжатия : С потерями
Размер потока : 81,6 Мбайт (12%)
Выравнивание : Соединение по промежуткам
Продолжительность промежутка : 42 мс. (1,00 видеокадр)
Время предзагрузки промежутка : 504 мс.
Библиотека кодирования : LAME3.99r
Настройки программы : -m s -V 4 -q 0 -lowpass 17 -b 128
английская оригинальная звуковая дорожка, лежит отдельно:
Общее
Полное имя : K:\раздачи\Tall Story 1960 700MB\Tall Story.ENG.mp3
Формат : MPEG Audio
Размер файла : 81,6 Мбайт
Продолжительность : 1 ч. 29 м.
Режим общего битрейта : Постоянный
Общий поток : 128 Кбит/сек
Библиотека кодирования : LAME3.99r
Аудио
Формат : MPEG Audio
Версия формата : Version 1
Профиль формата : Layer 3
Продолжительность : 1 ч. 29 м.
Вид битрейта : Постоянный
Битрейт : 128 Кбит/сек
Каналы : 2 канала
Частота : 48,0 КГц
Метод сжатия : С потерями
Размер потока : 81,6 Мбайт (100%)
Библиотека кодирования : LAME3.99r
Настройки программы : -m s -V 4 -q 0 -lowpass 17 -b 128

Исходник

To download the content you need:
1. Download and install torrent client [for Windows] or for mobile system
2. Click on [Download]
Attention.
If the test YOU are NOT a ROBOT - does not work, then You are using an outdated browser.
Install the current browser and click on [Download]
Security: torrent client is allowed by Kaspersky.

[en.asmlocator.ru].t3888.torrent 
Torrent: Registered [ 2015-11-30 05:45 ] · D1666D49C706883C2808862CE5051B998BC707C4

Download .torrent

Download

16 KB

Status: checked
Completed: 0 times
Size: 780 MB
terms.php
[Profile] [PM]
Display posts:    
Reply to topic

Current time is: 12-Dec 04:39

All times are UTC ± 0



You cannot post new topics in this forum
You cannot reply to topics in this forum
You cannot edit your posts in this forum
You cannot delete your posts in this forum
You cannot vote in polls in this forum
You cannot attach files in this forum
You can download files in this forum
Верим фактам, а не вранью Путина! Факт, что Правительство ведёт Россию к истреблению.
Так как численность населения падает, даже не смотря на приток эмигрантов!
Русская нация вымирает и вырождается, смешиваясь с эмигрантами!
Факт, что военных и граждан предприятий заставляют голосовать за партию Единая Россия и Путина
ПОД СТРАХОМ УВОЛЬНЕНИЯ!
Нам не нужно Правительство, блокирующее личную жизнь, интернет, нарушающее сохранность данных.
Все эти действия финансируются за счёт народа!