Последний гладиатор / Гладиатор Мессалины / L\'ultimo gladiatore (Умберто Ленци / Umberto Lenzi) [1964, Италия, Франция, история, приключения, DVDRip] Sub Rus (Антон Каптелов) + Original Ita

Reply to topic
DL-List and Torrent activity
Size:  1.46 GB   |    Registered:  4 years   |    Completed:  0 times

Seeder not seen: Never

 
   
 
 
Author Message

star21 ®

Gender: Female

Longevity: 4 years 1 month

Posts: 551946

Location: Екатеринбург

Post 30-Nov-2015 05:47

[Quote]

Последний гладиатор / Гладиатор Мессалины / L'ultimo gladiatore Страна: Италия, Франция
Жанр: история, приключения
Год выпуска: 1964
Продолжительность: 01:32:16
Перевод: Субтитры Антон Каптелов
Cубтитры: русские
Оригинальная аудиодорожка: итальянский
Режиссер: Умберто Ленци / Umberto Lenzi
В ролях: Ричард Харрисон, Лиза Гастони, Ливио Лоренцон, Марилу Толо, Филипп Эрсен, Жан Клаудио, Лидия Альфонси, Джанни Соларо, Энцо Фьермонте, Джузеппе Аддоббати
Описание: Во время очередной кампании на Британских островах римляне захватили в плен вождя одного из местных племен Главка. Но сделать из гордого бритта покорного раба оказалось невозможно, Главк постоянно пытался бежать, а оказавшись на гладиаторской арене, быстро завоевал симпатии жестокого императора Калигулы. Но против римского повелителя уже зрел заговор честолюбивой Мессалины, супруги дяди императора, Клавдия. После убийства Калигулы и возведения на трон ее мужа, женщина не успокоилась. Она плетет новый заговор, теперь уже в пользу своего любовника Гая Силия. И в этом заговоре не последнюю роль должен сыграть произведший на любвеобильную императрицу неизгладимое впечатление мужественный бритт Главк…
Сэмпл: http://multi-up.com/1064521
Качество видео: DVDRip
Формат видео: AVI
Видео: 640x272 (2.35:1), 25 fps, XviD build 50 ~1871 kbps avg, 0.43 bit/pixel
Аудио: 48 kHz, AC3 Dolby Digital, 3/2 (L,C,R,l,r) + LFE ch, ~384 kbps
Формат субтитров: softsub (SRT)

MediaInfo

Format : AVI
Format/Info : Audio Video Interleave
File size : 1.46 GiB
Duration : 1h 32mn
Overall bit rate : 2 266 Kbps
Writing application : VirtualDubMod 1.5.10.2 (build 2540/release)
Writing library : VirtualDubMod build 2540/release
Video
ID : 0
Format : MPEG-4 Visual
Format profile : Advanced Simple@L5
Format settings, BVOP : 1
Format settings, QPel : No
Format settings, GMC : No warppoints
Format settings, Matrix : Custom
Codec ID : XVID
Codec ID/Hint : XviD
Duration : 1h 32mn
Bit rate : 1 872 Kbps
Width : 640 pixels
Height : 272 pixels
Display aspect ratio : 2.35:1
Frame rate : 25.000 fps
Color space : YUV
Chroma subsampling : 4:2:0
Bit depth : 8 bits
Scan type : Progressive
Compression mode : Lossy
Bits/(Pixel*Frame) : 0.430
Stream size : 1.21 GiB (83%)
Writing library : XviD 1.2.1 (UTC 2008-12-04)
Audio
ID : 1
Format : AC-3
Format/Info : Audio Coding 3
Mode extension : CM (complete main)
Format settings, Endianness : Big
Codec ID : 2000
Duration : 1h 32mn
Bit rate mode : Constant
Bit rate : 384 Kbps
Channel(s) : 6 channels
Channel positions : Front: L C R, Side: L R, LFE
Sampling rate : 48.0 KHz
Bit depth : 16 bits
Compression mode : Lossy
Stream size : 253 MiB (17%)
Alignment : Split accross interleaves
Interleave, duration : 40 ms (1.00 video frame)
Interleave, preload duration : 500 ms
Language : Italiano

Скриншот c названием фильма

Пример субтитров

17
00:03:22,913 --> 00:03:24,452
Вперед, римляне!
18
00:03:24,632 --> 00:03:26,791
- Вперед!
- Нападай смелее!
19
00:03:27,299 --> 00:03:28,819
Добьемся славы!
20
00:04:45,992 --> 00:04:47,278
Вперед!
21
00:05:32,825 --> 00:05:35,219
Всему конец! Сдавайтесь!
22
00:05:36,520 --> 00:05:39,147
Цезарь, мы победили!
Уцелевшие сдаются группами.
23
00:05:39,451 --> 00:05:41,987
Это представление было очень забавным.
24
00:05:42,320 --> 00:05:45,653
Отправьте захваченных женщин в Рим.
У них добрая порода!
25
00:05:45,920 --> 00:05:49,351
Что касается мужчин...
Слабых и старых перебить!
26
00:05:49,520 --> 00:05:52,034
Всех остальных депортировать.
27
00:05:52,920 --> 00:05:54,387
Один момент!
28
00:05:58,645 --> 00:06:00,145
- Вперед!
- Пощади!
29
00:06:00,280 --> 00:06:01,897
Этого - нет!
30
00:06:03,200 --> 00:06:06,831
Этот человек слишком силен,
чтобы погубить его пленом.
31
00:06:08,480 --> 00:06:11,946
Он будет у меня сражаться
на арене, в качестве гладиатора.
32
00:06:15,440 --> 00:06:17,527
- Главк!
- Эна!
33
00:06:18,560 --> 00:06:20,212
Вперед, ну!
34
00:06:20,599 --> 00:06:21,848
Нет!
35
00:06:22,000 --> 00:06:23,529
Ты - трус!
36
00:06:26,560 --> 00:06:29,663
Хорошо! Теперь, когда я победил бриттов...
37
00:06:31,120 --> 00:06:33,837
...мне осталось только
подавить повстанцев...
38
00:06:34,498 --> 00:06:36,012
...римлян!
Огромное спасибо larisa547 за рип и Антону Каптелову за перевод фильма!

To download the content you need:
1. Download and install torrent client [for Windows] or for mobile system
2. Click on [Download]
Attention.
If the test YOU are NOT a ROBOT - does not work, then You are using an outdated browser.
Install the current browser and click on [Download]
Security: torrent client is allowed by Kaspersky.

[en.asmlocator.ru].t3878.torrent 
Torrent: Registered [ 2015-11-30 05:45 ] · DFA4B7C4D728F8284993EDE36FF02F42DC522338

Download .torrent

Download

15 KB

Status: checked
Completed: 0 times
Size: 1.46 GB
terms.php
[Profile] [PM]
Display posts:    
Reply to topic

Current time is: 12-Dec 17:28

All times are UTC ± 0



You cannot post new topics in this forum
You cannot reply to topics in this forum
You cannot edit your posts in this forum
You cannot delete your posts in this forum
You cannot vote in polls in this forum
You cannot attach files in this forum
You can download files in this forum
Верим фактам, а не вранью Путина! Факт, что Правительство ведёт Россию к истреблению.
Так как численность населения падает, даже не смотря на приток эмигрантов!
Русская нация вымирает и вырождается, смешиваясь с эмигрантами!
Факт, что военных и граждан предприятий заставляют голосовать за партию Единая Россия и Путина
ПОД СТРАХОМ УВОЛЬНЕНИЯ!
Нам не нужно Правительство, блокирующее личную жизнь, интернет, нарушающее сохранность данных.
Все эти действия финансируются за счёт народа!