Чарли Чен на Острове сокровищ / Charlie Chan at Treasure Island (Норман Фостер / Norman Foster) [1939, США, Детектив, комедия, DVDRip] VO (SATKUR) + Sub Rus + Original Eng

Reply to topic
DL-List and Torrent activity
Size:  1.43 GB   |    Registered:  4 years   |    Completed:  0 times

Seeder not seen: Never

 
   
 
 
Author Message

star21 ®

Gender: Female

Longevity: 4 years 1 month

Posts: 551946

Location: Екатеринбург

Post 30-Nov-2015 05:47

[Quote]

Чарли Чен на Острове сокровищ / Charlie Chan at Treasure Island
Страна: США
Жанр: Детектив, комедия
Год выпуска: 1939
Продолжительность: 01:14:00
Перевод: Одноголосый закадровый SATKUR
Cубтитры: русские
Оригинальная аудиодорожка: английский
Режиссер: Норман Фостер / Norman Foster
В ролях: Сидней Толер, Виктор Сен Юнг, Сизар Ромеро, Дуглас Фоули, Полин Мур
Описание: Полицейский детектив Чарли Чен, популярен в США, как у нас Шерлок Холмс или комиссар Мегрэ. К сожалению в России, литературные произведения и кинофильмы об этом замечательном сыщике, мало кому известны. Фильм «Чарли Чен на Острове сокровищ» это детектив с элементами комедии. В нём, Чарли Чен, вместе со своим сыном Джимми, (которого он в шутку зовёт - сын № 2) попадают в Сан-Франциско. Там они вынуждены столкнуться со злодеем Зодиаком, который под видом известного ясновидящего, выведывает у людей секреты, а потом шантажирует их. Остаётся добавить, что в 60-е годы прошлого столетия, в США появился настоящий маньяк-убийца, который стал именовать себя Зодиаком. Но в отличии от своего киношного прототипа, реального убийцу, полиции задержать так и не удалось...
Доп. информация: Озвучено по субтитрам fdn80, источник
Сэмпл: http://multi-up.com/1064544
Качество видео: DVDRip
Формат видео: AVI
Видео: 640x480 (1.33:1), 23.976 fps, XviD MPEG-4 ~2376 kbps avg, 0.32 bit/pixel
Аудио 1: 48 kHz, AC3 Dolby Digital, 2/0 (L,R) ch, ~192.00 kbps - русский
Аудио 2: 48 kHz, AC3 Dolby Digital, 2/0 (L,R) ch, ~192.00 kbps - английский
Формат субтитров: softsub (SRT)

MediaInfo

Общее
Полное имя : F:\FILMY\FILM-2015\Disk-101\ЧЧен на острове сокровищ\Charli.Chen.na.Ostrove.sokrovich.1939.USA.[vo.satkur+eng].AC3.Rus\Charli.Chen.na.Ostrove.sokrovich.1939.USA.[vo.satkur+eng].AC3.Rus.avi
Формат : AVI
Формат/Информация : Audio Video Interleave
Размер файла : 1,43 Гбайт
Продолжительность : 1 ч. 14 м.
Общий поток : 2775 Кбит/сек
Программа кодирования : VirtualDubModRus 1.5.10.2 (build 2542/release)
Библиотека кодирования : VirtualDubMod build 2542/release
Видео
Идентификатор : 0
Формат : MPEG-4 Visual
Профиль формата : Advanced Simple@L5
Параметр BVOP формата : 2
Параметр QPel формата : Нет
Параметр GMC формата : Без точки перехода
Параметр матрицы формата : Default (MPEG)
Режим смешивания : Сжатый битовый поток
Идентификатор кодека : XVID
Идентификатор кодека/Подсказка : XviD
Продолжительность : 1 ч. 14 м.
Битрейт : 2377 Кбит/сек
Ширина : 640 пикселей
Высота : 480 пикселей
Соотношение сторон : 4:3
Частота кадров : 23,976 кадра/сек
Цветовое пространство : YUV
Субдискретизация насыщенности : 4:2:0
Битовая глубина : 8 бит
Тип развёртки : Прогрессивная
Метод сжатия : С потерями
Бит/(Пиксели*Кадры) : 0.323
Размер потока : 1,23 Гбайт (86%)
Библиотека кодирования : XviD 1.2.0.dev47 (UTC 2006-11-01)
Аудио #1
Идентификатор : 1
Формат : AC-3
Формат/Информация : Audio Coding 3
Расширение режима : CM (complete main)
Параметр Endianness формата : Big
Идентификатор кодека : 2000
Продолжительность : 1 ч. 14 м.
Вид битрейта : Постоянный
Битрейт : 192 Кбит/сек
Каналы : 2 канала
Расположение каналов : Front: L R
Частота : 48,0 КГц
Битовая глубина : 16 бит
Метод сжатия : С потерями
Размер потока : 102 Мбайт (7%)
Выравнивание : Разделение по промежуткам
Продолжительность промежутка : 42 мс. (1,00 видеокадр)
Время предзагрузки промежутка : 500 мс.
Аудио #2
Идентификатор : 2
Формат : AC-3
Формат/Информация : Audio Coding 3
Расширение режима : CM (complete main)
Параметр Endianness формата : Big
Идентификатор кодека : 2000
Продолжительность : 1 ч. 14 м.
Вид битрейта : Постоянный
Битрейт : 192 Кбит/сек
Каналы : 2 канала
Расположение каналов : Front: L R
Частота : 48,0 КГц
Битовая глубина : 16 бит
Метод сжатия : С потерями
Размер потока : 102 Мбайт (7%)
Выравнивание : Разделение по промежуткам
Продолжительность промежутка : 42 мс. (1,00 видеокадр)
Время предзагрузки промежутка : 500 мс.

Скриншот c названием фильма

Скриншоты

To download the content you need:
1. Download and install torrent client [for Windows] or for mobile system
2. Click on [Download]
Attention.
If the test YOU are NOT a ROBOT - does not work, then You are using an outdated browser.
Install the current browser and click on [Download]
Security: torrent client is allowed by Kaspersky.

[en.asmlocator.ru].t3877.torrent 
Torrent: Registered [ 2015-11-30 05:45 ] · 2DE0AB595DEF794AB976CF87283BB80E19202AA7

Download .torrent

Download

15 KB

Status: checked
Completed: 0 times
Size: 1.43 GB
terms.php
[Profile] [PM]
Display posts:    
Reply to topic

Current time is: 12-Dec 18:22

All times are UTC ± 0



You cannot post new topics in this forum
You cannot reply to topics in this forum
You cannot edit your posts in this forum
You cannot delete your posts in this forum
You cannot vote in polls in this forum
You cannot attach files in this forum
You can download files in this forum
Верим фактам, а не вранью Путина! Факт, что Правительство ведёт Россию к истреблению.
Так как численность населения падает, даже не смотря на приток эмигрантов!
Русская нация вымирает и вырождается, смешиваясь с эмигрантами!
Факт, что военных и граждан предприятий заставляют голосовать за партию Единая Россия и Путина
ПОД СТРАХОМ УВОЛЬНЕНИЯ!
Нам не нужно Правительство, блокирующее личную жизнь, интернет, нарушающее сохранность данных.
Все эти действия финансируются за счёт народа!